Cкачать бесплатно фильмы.
Поиск фильмов
Log Pass забыли?
  Бесплатные фильмы
Скачать Игры дьявола , Before the Devil Knows You’re Dead 1080p [2007 | HDTV]
КатегорияТриллер / Драма
Похожие фильмы



Похожие онлайн фильмы
Постер фильма Игры дьявола , Before the Devil Knows You’re Dead 1080p [2007 | HDTV]
Игры дьявола ,  Before the Devil Knows You’re Dead 1080p [2007 | HDTV]

Обзор



Название: Игры дьявола
Оригинальное название:  Before the Devil Knows You’re Dead 1080p
Год выхода: 2007
Режиссер:  Сидни Люмет
В ролях: Филип Сеймур Хоффман, Этан Хоук, Альберт Финни, Мариса Томей, Алекса Палладино, Майкл Шеннон, Эми Райан, Сара Ливингстон, Брайан Ф. О’Бирн, Розмари Харрис
Продолжительность: 01:56:43
Язык: Русский Профессиональный (полное дублирование)

О фильме:
http://zamolxismd.org/m/i17.fastpic.ru/big/2011/0306/a5/65ae805d625f64f0b5b389f9d04e58a5.gif

« Мы убиваем тех, кем дорожим... »

Два брата замыслили идеальное, как им кажется, преступление. В теории они должны получить огромную сумму денег, обойдясь при этом без оружия, жестокости и кровопролития. Более того, вероятность неудачи сведена к нулю. Однако хитроумный план идет прахом, когда соучастник героев самовольно меняет правила игры, и подвергает себя и подельников неоправданному риску. Преступники теряют контроль над ситуацией, а череда последующих событий, увы, никого не оставляет в безопасности…



http://s017.radikal.ru/i400/1112/a8/ff76ca9353fe.gif


http://zamolxismd.org/m/i17.fastpic.ru/big/2011/0306/a5/65ae805d625f64f0b5b389f9d04e58a5.gif


http://thumbnails67.imagebam.com/16650/8e2a6f166494767.jpg http://thumbnails21.imagebam.com/16650/e3469b166494774.jpg http://thumbnails20.imagebam.com/16650/efc261166494782.jpg http://thumbnails61.imagebam.com/16650/1bbb49166494792.jpg

http://zamolxismd.org/m/i17.fastpic.ru/big/2011/0306/a5/65ae805d625f64f0b5b389f9d04e58a5.gif

http://thumbnails64.imagebam.com/16650/3615b5166494803.jpg http://thumbnails59.imagebam.com/16650/a8e46d166494812.jpg http://thumbnails45.imagebam.com/16650/05fa3b166494822.jpg http://thumbnails64.imagebam.com/16650/ce790b166494839.jpg

http://zamolxismd.org/m/i17.fastpic.ru/big/2011/0306/a5/65ae805d625f64f0b5b389f9d04e58a5.gif

INFO AUDIO



Audio #1
ID                              : 2
Format                          : DTS
Format/Info                      : Digital Theater Systems
Codec ID                        : A_DTS
Duration                        : 1h 56mn
Bit rate mode                    : Constant
Bit rate                        : 755 Kbps
Channel(s)                      : 6 channels
Channel positions                : Front: L C R, Side: L R, LFE
Sampling rate                    : 48.0 KHz
Bit depth                        : 24 bits
Compression mode                : Lossy
Stream size                      : 630 MiB (5%)
Title                            : DUB
Language                        : Russian

Audio #2
ID                              : 3
Format                          : DTS
Format/Info                      : Digital Theater Systems
Codec ID                        : A_DTS
Duration                        : 1h 56mn
Bit rate mode                    : Constant
Bit rate                        : 1 510 Kbps
Channel(s)                      : 6 channels
Channel positions                : Front: L C R, Side: L R, LFE
Sampling rate                    : 48.0 KHz
Bit depth                        : 24 bits
Compression mode                : Lossy
Stream size                      : 1.23 GiB (9%)
Title                            : AVO-Ю.Сербин
Language                        : Russian

Audio #3
ID                              : 4
Format                          : DTS
Format/Info                      : Digital Theater Systems
Codec ID                        : A_DTS
Duration                        : 1h 56mn
Bit rate mode                    : Constant
Bit rate                        : 1 510 Kbps
Channel(s)                      : 6 channels
Channel positions                : Front: L C R, Side: L R, LFE
Sampling rate                    : 48.0 KHz
Bit depth                        : 24 bits
Compression mode                : Lossy
Stream size                      : 1.23 GiB (9%)
Title                            : Original
Language                        : English

Audio #4
ID                              : 5
Format                          : AC-3
Format/Info                      : Audio Coding 3
Mode extension                  : CM (complete main)
Codec ID                        : A_AC3
Duration                        : 1h 56mn
Bit rate mode                    : Constant
Bit rate                        : 224 Kbps
Channel(s)                      : 2 channels
Channel positions                : Front: L R
Sampling rate                    : 48.0 KHz
Bit depth                        : 16 bits
Compression mode                : Lossy
Stream size                      : 187 MiB (1%)
Title                            : Commentary
Language                        : English

http://zamolxismd.org/m/i17.fastpic.ru/big/2011/0306/a5/65ae805d625f64f0b5b389f9d04e58a5.gif

http://s42.radikal.ru/i095/1112/79/d1d67ef78403.gif



http://s011.radikal.ru/i318/1112/05/36b3cd8cfa48.png
  


ФАЙЛ
Качество: HDTV
Видео: AVC, 1920x1040 (16/9), 23.976 fps, 12.1 Mbps (0.246 bit/pixel)
Звук: Аудио #1:(Russian) DTS, 48.0 KHz, 6 ch, 755 Kbps, CBR - (дубляж); Аудио #2:(Russian) DTS, 48.0 KHz, 6 ch, 1 510 Kbps, CBR - одноголосый закадровый (Ю. Сербин); Аудио #3:(English) DTS, 48.0 KHz, 6 ch, 1 510 Kbps, CBR ; Аудио #4:(English) AC-3, 48.0 KHz, 2 ch, 224 Kbps, CBR (Commentary)
Размер13.13 GB (14,097,589,864 байт)
Скачать Игры дьявола , Before the Devil Knows You’re Dead 1080p [2007 | HDTV]

:: ОТЗЫВЫ


button_offline Отзыв от jekajyjuk
avatar 836742

почему фильм тормозит? :sly:

button_offline Отзыв от jekajyjuk
avatar 836742

фильм тормозит,качать нестоит!нах такое вылаживать?! :sly:

РЕГИСТРАЦИЯ.

Смотрите бесплатное порно или эротику

footerLeft
Информация для правообладателей На ёгли вы скачаете порно, бесплатные фильмы, а также новинки кино. Все это бесплатно и без смс.