Cкачать бесплатно фильмы.
Поиск фильмов
Log Pass забыли?
  Бесплатные фильмы
Скачать Игры с черными - Paige Turnah
КатегорияМежрассовое / Груди
Похожие фильмы



Похожие онлайн фильмы
Постер фильма Игры с черными - Paige Turnah
Игры с черными - Paige Turnah

Обзор



Шлюхе оказалось мало одного негра, она решила попробовать два черных хуя в своей пизде сразу


General
Complete name                            : C:UsersUserDownloadsPaige Turnah.mp4
Format                                   : MPEG-4
Codec ID                                 : M4V
File size                                : 348 MiB
Duration                                 : 34mn 24s
Overall bit rate mode                    : Variable
Overall bit rate                         : 1 414 Kbps
Encoded date                             : UTC 2012-01-23 19:43:08
Tagged date                              : UTC 2012-01-23 19:43:08

Video
ID                                       : 1
Format                                   : AVC
Format/Info                              : Advanced Video Codec
Format profile                           : Main@L3.1
Format settings, CABAC                   : No
Format settings, ReFrames                : 2 frames
Format settings, GOP                     : M=3, N=80
Codec ID                                 : avc1
Codec ID/Info                            : Advanced Video Coding
Duration                                 : 34mn 24s
Bit rate mode                            : Variable
Bit rate                                 : 1 281 Kbps
Maximum bit rate                         : 1 920 Kbps
Width                                    : 640 pixels
Height                                   : 360 pixels
Display aspect ratio                     : 16:9
Frame rate mode                          : Constant
Frame rate                               : 29.917 fps
Color space                              : YUV
Chroma subsampling                       : 4:2:0
Bit depth                                : 8 bits
Scan type                                : Progressive
Bits/(Pixel*Frame)                       : 0.186
Stream size                              : 315 MiB (91%)
Encoded date                             : UTC 2012-01-23 19:43:08
Tagged date                              : UTC 2012-01-23 19:43:08

Audio
ID                                       : 2
Format                                   : AAC
Format/Info                              : Advanced Audio Codec
Format profile                           : LC
Codec ID                                 : 40
Duration                                 : 34mn 24s
Bit rate mode                            : Variable
Bit rate                                 : 128 Kbps
Maximum bit rate                         : 134 Kbps
Channel(s)                               : 2 channels
Channel positions                        : Front: L R
Sampling rate                            : 22.05 KHz
Compression mode                         : Lossy
Stream size                              : 31.2 MiB (9%)
Encoded date                             : UTC 2012-01-23 19:43:10
Tagged date                              : UTC 2012-01-23 19:43:10


http://i74.fastpic.ru/big/2015/1121/77/5e46e08678d2a1901ec58d1660935177.gif http://i75.fastpic.ru/big/2015/1121/bf/b944bc377d5b03a92a3fd4c98739e6bf.gif
http://i66.fastpic.ru/big/2015/1121/09/1d433ff77fa10f5a804d3fee393d6a09.gif http://i65.fastpic.ru/big/2015/1121/5a/5c93588cb0f9334a7e5f1bd6d1d4dc5a.gif


http://i76.fastpic.ru/big/2015/1121/26/514eede3ef1f9da80da1f57f6190a426.jpg
Размер348.00 MB (364,902,145 байт)
Скачать Игры с черными - Paige Turnah

:: Отзывы



Отзывы отсутствуют.

 :: Отзывов нет
РЕГИСТРАЦИЯ.

Смотрите бесплатное порно или эротику

footerLeft
Информация для правообладателей На ёгли вы скачаете порно, бесплатные фильмы, а также новинки кино. Все это бесплатно и без смс.