Cкачать бесплатно фильмы.
Поиск фильмов
Log Pass забыли?
  Бесплатные фильмы
Скачать Ингридиенты для заправки - Ryan Conner (Take A Seat On My Dick)
КатегорияCreampies / Зрелые / Груди
Похожие фильмы



Похожие онлайн фильмы
Постер фильма Ингридиенты для заправки - Ryan Conner (Take A Seat On My Dick)
Ингридиенты для заправки - Ryan Conner (Take A Seat On My Dick)

Обзор



Похотливая сука под предлогом помощи в готовке заманила на кухню парня, который на отлично заправил спермой ее пизду


General
Complete name                            : C:UsersUserDownloadsRyan Conner (Take A Seat On My Dick).mp4
Format                                   : MPEG-4
Format profile                           : Base Media
Codec ID                                 : isom
File size                                : 2.23 GiB
Duration                                 : 37mn 50s
Overall bit rate                         : 8 447 Kbps
Writing application                      : Lavf55.1.100

Video
ID                                       : 1
Format                                   : AVC
Format/Info                              : Advanced Video Codec
Format profile                           : High@L4.1
Format settings, CABAC                   : Yes
Format settings, ReFrames                : 5 frames
Codec ID                                 : avc1
Codec ID/Info                            : Advanced Video Coding
Duration                                 : 37mn 50s
Bit rate                                 : 8 000 Kbps
Width                                    : 1 280 pixels
Height                                   : 720 pixels
Display aspect ratio                     : 16:9
Frame rate mode                          : Constant
Frame rate                               : 29.970 fps
Color space                              : YUV
Chroma subsampling                       : 4:2:0
Bit depth                                : 8 bits
Scan type                                : Progressive
Bits/(Pixel*Frame)                       : 0.290
Stream size                              : 2.11 GiB (94%)
Writing library                          : x264 core 130 r2274 c832fe9
Encoding settings                        : cabac=1 / ref=5 / deblock=1:0:0 / analyse=0x3:0x113 / me=umh / subme=8 / psy=1 / psy_rd=1.00:0.00 / mixed_ref=1 / me_range=16 / chroma_me=1 / trellis=1 / 8x8dct=1 / cqm=0 / deadzone=21,11 / fast_pskip=1 / chroma_qp_offset=-2 / threads=36 / lookahead_threads=5 / sliced_threads=0 / nr=0 / decimate=1 / interlaced=0 / bluray_compat=0 / constrained_intra=0 / bframes=3 / b_pyramid=2 / b_adapt=2 / b_bias=0 / direct=3 / weightb=1 / open_gop=0 / weightp=2 / keyint=60 / keyint_min=6 / scenecut=40 / intra_refresh=0 / rc_lookahead=50 / rc=abr / mbtree=1 / bitrate=8000 / ratetol=1.0 / qcomp=0.60 / qpmin=0 / qpmax=69 / qpstep=4 / ip_ratio=1.40 / aq=1:1.00
Language                                 : English
Tagged date                              : UTC 2015-10-29 06:14:19

Audio
ID                                       : 2
Format                                   : AAC
Format/Info                              : Advanced Audio Codec
Format profile                           : LC
Codec ID                                 : 40
Duration                                 : 37mn 50s
Duration_LastFrame                       : 33ms
Bit rate mode                            : Constant
Bit rate                                 : 128 Kbps
Channel(s)                               : 2 channels
Channel positions                        : Front: L R
Sampling rate                            : 48.0 KHz
Compression mode                         : Lossy
Stream size                              : 34.6 MiB (2%)
Language                                 : English
Tagged date                              : UTC 2015-10-29 06:14:19

Other #1
ID                                       : 65536
Type                                     : Hint
Format                                   : RTP
Codec ID                                 : rtp
Duration                                 : 37mn 50s
Encoded date                             : UTC 2015-10-29 06:14:11
Tagged date                              : UTC 2015-10-29 06:14:19

Other #2
ID                                       : 65537
Type                                     : Hint
Format                                   : RTP
Codec ID                                 : rtp
Duration                                 : 37mn 50s
Encoded date                             : UTC 2015-10-29 06:14:17
Tagged date                              : UTC 2015-10-29 06:14:19
Bit rate mode                            : VBR


http://i75.fastpic.ru/thumb/2015/1103/47/c066e37ef56b34d7d5d31fb84acaf747.jpeg http://i75.fastpic.ru/thumb/2015/1103/53/e2742395f95dcafc2e67264c13c9e353.jpeg http://i75.fastpic.ru/thumb/2015/1103/e6/795625d530a9484f3f58db56b618e0e6.jpeg http://i75.fastpic.ru/thumb/2015/1103/1f/62716e4ad71ad217ce9dce0568fa081f.jpeg
Размер2.23 GB (2,397,099,404 байт)
Скачать Ингридиенты для заправки - Ryan Conner (Take A Seat On My Dick)

:: Отзывы



Отзывы отсутствуют.

 :: Отзывов нет
РЕГИСТРАЦИЯ.

Смотрите бесплатное порно или эротику

footerLeft
Информация для правообладателей На ёгли вы скачаете порно, бесплатные фильмы, а также новинки кино. Все это бесплатно и без смс.