Cкачать бесплатно фильмы.
Поиск фильмов
Log Pass забыли?
  Бесплатные фильмы
Скачать История в сортире - Ava Dalush
КатегорияМежрассовое / Оргия
Похожие фильмы



Похожие онлайн фильмы
Постер фильма История в сортире - Ava Dalush
История в сортире - Ava Dalush

Обзор



Черные ебут по договоренности свою училку в сортире


General
Complete name                            : C:UsersUserDownloadsAva Dalush.mp4
Format                                   : MPEG-4
Format profile                           : Base Media
Codec ID                                 : isom
File size                                : 244 MiB
Duration                                 : 15mn 29s
Overall bit rate mode                    : Variable
Overall bit rate                         : 2 199 Kbps
Encoded date                             : UTC 2015-08-31 10:29:59
Tagged date                              : UTC 2015-08-31 10:29:59

Video
ID                                       : 1
Format                                   : AVC
Format/Info                              : Advanced Video Codec
Format profile                           : High@L4.1
Format settings, CABAC                   : Yes
Format settings, ReFrames                : 8 frames
Format settings, GOP                     : M=1, N=25
Codec ID                                 : avc1
Codec ID/Info                            : Advanced Video Coding
Duration                                 : 15mn 29s
Bit rate                                 : 2 132 Kbps
Maximum bit rate                         : 3 600 Kbps
Width                                    : 1 280 pixels
Height                                   : 720 pixels
Display aspect ratio                     : 16:9
Frame rate mode                          : Constant
Frame rate                               : 25.000 fps
Color space                              : YUV
Chroma subsampling                       : 4:2:0
Bit depth                                : 8 bits
Scan type                                : Progressive
Bits/(Pixel*Frame)                       : 0.093
Stream size                              : 236 MiB (97%)
Writing library                          : Zencoder Video Encoding System
Encoded date                             : UTC 2015-08-31 10:21:45
Tagged date                              : UTC 2015-08-31 10:29:59

Audio
ID                                       : 2
Format                                   : AAC
Format/Info                              : Advanced Audio Codec
Format profile                           : LC
Codec ID                                 : 40
Duration                                 : 15mn 29s
Bit rate mode                            : Variable
Bit rate                                 : 63.6 Kbps
Maximum bit rate                         : 79.6 Kbps
Channel(s)                               : 2 channels
Channel positions                        : Front: L R
Sampling rate                            : 48.0 KHz
Compression mode                         : Lossy
Stream size                              : 7.05 MiB (3%)
Encoded date                             : UTC 2015-08-31 10:19:55
Tagged date                              : UTC 2015-08-31 10:29:59


http://i73.fastpic.ru/thumb/2015/1104/f1/97ca9104c3b5675956c68755931b20f1.jpeg http://i73.fastpic.ru/thumb/2015/1104/75/5039e6ae85ef23623014e79dde1bf175.jpeg http://i73.fastpic.ru/thumb/2015/1104/0d/ffbe2d71859eb4dc61ca2c6b836ca00d.jpeg http://i73.fastpic.ru/thumb/2015/1104/90/f5ffcf6504506439770d2afc6c028290.jpeg
Размер243.72 MB (255,559,297 байт)
Скачать История в сортире - Ava Dalush

:: ОТЗЫВЫ


button_offline Отзыв от asdfaserer
avatar 869855

:w00t: :w00t: :w00t:

РЕГИСТРАЦИЯ.

Смотрите бесплатное порно или эротику

footerLeft
Информация для правообладателей На ёгли вы скачаете порно, бесплатные фильмы, а также новинки кино. Все это бесплатно и без смс.