Cкачать бесплатно фильмы.
Поиск фильмов
Log Pass забыли?
  Бесплатные фильмы
Скачать Карли Бенкс и Джейми Ленгфорд - Carli Banks & Jayme Langford
КатегорияЛесбо
Похожие фильмы



Похожие онлайн фильмы
Постер фильма Карли Бенкс и Джейми Ленгфорд - Carli Banks & Jayme Langford
Карли Бенкс и Джейми Ленгфорд - Carli Banks & Jayme Langford
Фото фильма Карли Бенкс и Джейми Ленгфорд - Carli Banks & Jayme Langford
Карли Бенкс и Джейми Ленгфорд - Carli Banks & Jayme Langford

Обзор



Format                           : Windows Media
File size                        : 205 MiB
Duration                         : 25mn 31s
Overall bit rate mode            : Variable
Overall bit rate                 : 1 123 Kbps
Maximum Overall bit rate         : 1 203 Kbps
Movie name                       : www.CarliBanks.com
Performer                        : www.CarliBanks.com
Recorded date                    : 2008
Encoded date                     : UTC 2009-03-26 05:58:39.976
Copyright                        : www.CarliBanks.com
Comment                          : www.CarliBanks.com
SfOriginalFPS                    : 300000
Engineer                         : www.CarliBanks.com

Video
ID                               : 2
Format                           : VC-1
Format profile                   : MP@ML
Codec ID                         : WMV3
Codec ID/Info                    : Windows Media Video 9
Codec ID/Hint                    : WMV3
Description of the codec         : Windows Media Video 9 - Professional
Duration                         : 25mn 31s
Bit rate mode                    : Variable
Bit rate                         : 1 049 Kbps
Width                            : 640 pixels
Height                           : 480 pixels
Display aspect ratio             : 4:3
Frame rate                       : 30.000 fps
Bit depth                        : 8 bits
Scan type                        : Progressive
Compression mode                 : Lossy
Bits/(Pixel*Frame)               : 0.114
Stream size                      : 191 MiB (93%)
Language                         : English (US)

Audio
ID                               : 1
Format                           : WMA
Format version                   : Version 2
Codec ID                         : 161
Codec ID/Info                    : Windows Media Audio
Description of the codec         : Windows Media Audio 9.2 -  64 kbps, 44 kHz, stereo (A/V) 1-pass CBR
Duration                         : 25mn 31s
Bit rate mode                    : Constant
Bit rate                         : 64.0 Kbps
Channel(s)                       : 2 channels
Sampling rate                    : 44.1 KHz
Bit depth                        : 16 bits
Stream size                      : 11.7 MiB (6%)
Language                         : English (US)
Размер205.02 MB (214,982,915 байт)
Скачать Карли Бенкс и Джейми Ленгфорд - Carli Banks & Jayme Langford

:: Отзывы



Отзывы отсутствуют.

 :: Отзывов нет
РЕГИСТРАЦИЯ.

Смотрите бесплатное порно или эротику

footerLeft
Информация для правообладателей На ёгли вы скачаете порно, бесплатные фильмы, а также новинки кино. Все это бесплатно и без смс.