Cкачать бесплатно фильмы.
Поиск фильмов
Log Pass забыли?
  Бесплатные фильмы
Скачать Катя Кассин - Katija Kassin & Many Mans
КатегорияЖёсткое / Жёсткое / Зрелые / Анал / Оргия / Гламур(DVD..)
Похожие фильмы



Похожие онлайн фильмы
Постер фильма Катя Кассин - Katija Kassin & Many Mans
Катя Кассин - Katija Kassin & Many Mans
Фото фильма Катя Кассин - Katija Kassin & Many Mans
Катя Кассин - Katija Kassin & Many Mans

Обзор



Катя Кассин попала под раздачу! Эта жопастая телка любит много спермы!!!  :-D :-D :-D

Format                           : AVI
Format/Info                      : Audio Video Interleave
File size                        : 683 MiB
Duration                         : 51mn 19s
Overall bit rate                 : 1 860 Kbps
Writing application              : MEncoder dev-CVS-060307-04:23-4.0.1
Writing library                  : MPlayer

Video
ID                               : 0
Format                           : MPEG-4 Visual
Format profile                   : Simple@L3
Format settings, BVOP            : No
Format settings, QPel            : No
Format settings, GMC             : No warppoints
Format settings, Matrix          : Default (H.263)
Codec ID                         : XVID
Codec ID/Hint                    : XviD
Duration                         : 51mn 18s
Bit rate                         : 1 718 Kbps
Width                            : 720 pixels
Height                           : 528 pixels
Display aspect ratio             : 4:3
Frame rate                       : 29.970 fps
Resolution                       : 24 bits
Colorimetry                      : 4:2:0
Scan type                        : Progressive
Bits/(Pixel*Frame)               : 0.151
Stream size                      : 631 MiB (92%)
Writing library                  : XviD 1.2.0SMP (UTC 2006-01-08)

Audio
ID                               : 1
Format                           : MPEG Audio
Format version                   : Version 1
Format profile                   : Layer 3
Codec ID                         : 55
Codec ID/Hint                    : MP3
Duration                         : 51mn 19s
Bit rate mode                    : Constant
Bit rate                         : 128 Kbps
Channel(s)                       : 2 channels
Sampling rate                    : 48.0 KHz
Resolution                       : 16 bits
Stream size                      : 47.0 MiB (7%)
Alignment                        : Aligned on interleaves
Interleave, duration             : 24 ms (0.72 video frame)
Interleave, preload duration     : 504 ms

Размер682.67 MB (715,834,568 байт)
Скачать Катя Кассин - Katija Kassin & Many Mans

:: ОТЗЫВЫ


button_offline Отзыв от Sango Human
avatar 739835

ГОСПОДА НЕ УХОДИТЕ С РАЗДАЧИ!!!!!!!!!!!!!!!

button_offline Отзыв от vlasker
avatar 325294

Макс теперь работает не один ? :-/

button_offline Отзыв от zatmenie13
avatar 642816

:-) :-) :-) :-) :-) :-)

РЕГИСТРАЦИЯ.

Смотрите бесплатное порно или эротику

footerLeft
Информация для правообладателей На ёгли вы скачаете порно, бесплатные фильмы, а также новинки кино. Все это бесплатно и без смс.