Cкачать бесплатно фильмы.
Поиск фильмов
Log Pass забыли?
  Бесплатные фильмы
Скачать Келли Лейх - Коллекция пумы 2008 - Kelly Leigh-The Cougar Collection2008
КатегорияЗрелые
Похожие фильмы



Похожие онлайн фильмы
Постер фильма Келли Лейх - Коллекция пумы 2008 - Kelly Leigh-The Cougar Collection2008
Келли Лейх - Коллекция пумы 2008 - Kelly Leigh-The Cougar Collection2008
Фото фильма Келли Лейх - Коллекция пумы 2008 - Kelly Leigh-The Cougar Collection2008
Келли Лейх - Коллекция пумы 2008 - Kelly Leigh-The Cougar Collection2008

Обзор



Format                           : Windows Media
File size                        : 290 MiB
Duration                         : 26mn 57s
Overall bit rate mode            : Constant
Overall bit rate                 : 1 504 Kbps
Maximum Overall bit rate         : 1 515 Kbps
Movie name                       : CougarsInHeat.com
Performer                        : NationalPornographic.com
Encoded date                     : UTC 2008-01-17 15:34:33.828
Copyright                        : NationalPornographic.com
Comment                          : Horny mature cougar in heat, Kelly, gets fucked by a younger guy!
Rating                           : Adult
AspectRatioX                     : 1
AspectRatioY                     : 1

Video
ID                               : 2
Format                           : VC-1
Format profile                   : MP@HL
Codec ID                         : WMV3
Codec ID/Info                    : Windows Media Video 9
Codec ID/Hint                    : WMV3
Description of the codec         : Windows Media Video 9 - Professional
Duration                         : 26mn 56s
Bit rate mode                    : Constant
Bit rate                         : 1 372 Kbps
Width                            : 960 pixels
Height                           : 540 pixels
Display aspect ratio             : 16:9
Frame rate                       : 29.970 fps
Resolution                       : 24 bits
Scan type                        : Progressive
Bits/(Pixel*Frame)               : 0.088
Stream size                      : 264 MiB (91%)

Audio
ID                               : 1
Format                           : WMA
Format version                   : Version 2
Codec ID                         : 161
Codec ID/Info                    : Windows Media Audio
Description of the codec         : Windows Media Audio 9.2 - 128 kbps, 48 kHz, stereo 1-pass CBR
Duration                         : 26mn 57s
Bit rate mode                    : Constant
Bit rate                         : 128 Kbps
Channel(s)                       : 2 channels
Sampling rate                    : 48.0 KHz
Resolution                       : 16 bits
Stream size                      : 24.7 MiB (9%)

Размер290.14 MB (304,231,173 байт)
Скачать Келли Лейх - Коллекция пумы 2008 - Kelly Leigh-The Cougar Collection2008

:: Отзывы



Отзывы отсутствуют.

 :: Отзывов нет
РЕГИСТРАЦИЯ.

Смотрите бесплатное порно или эротику

footerLeft
Информация для правообладателей На ёгли вы скачаете порно, бесплатные фильмы, а также новинки кино. Все это бесплатно и без смс.