Cкачать бесплатно фильмы.
Поиск фильмов
Log Pass забыли?
  Бесплатные фильмы
Скачать Клип с зарослями
Видео закрыто попробуйте наити похожие Клип с зарослями
КатегорияКлассика / Молодые
Похожие фильмы



Похожие онлайн фильмы
Постер фильма Клип с зарослями
Клип с зарослями
Фото фильма Клип с зарослями
Клип с зарослями

Обзор



активно жмём спасибо




      Format : AVI
      Format/Info : Audio Video Interleave
      File size : 117 MiB
      Duration : 10mn 37s
      Overall bit rate : 1 546 Kbps
      Writing library : Boilsoft Joiner build 2411/release
   Video
      Format : MPEG-4 Visual
      Format profile : Streaming Video@L1
      Format settings, BVOP : Yes
      Format settings, QPel : Yes
      Format settings, GMC : 3 warppoints
      Format settings, Matrix : Default
      Muxing mode : Packed bitstream
      Codec ID : XVID
      Codec ID/Hint : XviD
      Duration : 10mn 37s
      Bit rate : 1 408 Kbps
      Width : 768 pixels
      Height : 576 pixels
      Display aspect ratio : 4/3
      Frame rate : 25.000 fps
      Resolution : 24 bits
      Colorimetry : 4:2:0
      Scan type : Progressive
      Bits/(Pixel*Frame) : 0.127
      Stream size : 107 MiB (91%)
      Writing library : XviD 1.2.0.dev47 (UTC 2006-11-01)
   Audio
      Format : MPEG Audio
      Format version : Version 1
      Format profile : Layer 3
      Codec ID : 55
      Codec ID/Hint : MP3
      Duration : 10mn 37s
      Bit rate mode : Constant
      Bit rate : 128 Kbps
      Minimum bit rate : 128 Kbps
      Channel(s) : 2 channels
      Sampling rate : 32.0 KHz
      Resolution : 16 bits
      Stream size : 9.73 MiB (8%)
      Alignment : Aligned on interleaves
      Interleave, duration : 40 ms (1.00 video frame)
      Interleave, preload duration : 468 ms
      Writing library : LAME3.97
      Encoding settings : CBR
Размер117.48 MB (123,191,296 байт)
Скачать Клип с зарослями
Видео закрыто попробуйте наити похожие Клип с зарослями

:: ОТЗЫВЫ


button_offline Отзыв от Fijek
avatar 397306

Спасибо!!! :w00t: :w00t: 8-)

button_offline Отзыв от Manson666
avatar 1171

Класс :w00t:Спасибо! Автор молодец ;-)

button_offline Отзыв от maxduke
avatar 354075

Спасибо!!!

РЕГИСТРАЦИЯ.

Смотрите бесплатное порно или эротику

footerLeft
Информация для правообладателей На ёгли вы скачаете порно, бесплатные фильмы, а также новинки кино. Все это бесплатно и без смс.