Cкачать бесплатно фильмы.
Поиск фильмов
Log Pass забыли?
  Бесплатные фильмы
Скачать Колледж Правил - CollegeRules - Foos My Balls Baby [720p]
Похожие фильмы

Похожие онлайн фильмы
Постер фильма Колледж Правил - CollegeRules - Foos My Balls Baby [720p]
Колледж Правил - CollegeRules - Foos My Balls Baby [720p]


College life sure is crazy! This week we received a pretty fun video from a Florida school; these students were hanging out in their school's rec room and things got a little out of hand. They were the only group in the room at the time so they took advantage of the rare opportunity and started playing some frisky games like naked ping pong, strip Foosball and naked girl boxing. This one was fun and exciting to watch as these hot college chicks sucked and fucked their frat boy friends and of course had some coed-on-coed action which is always a sight for sore eyes.

Информация о файле:
Имя файла: Foos my balls baby.mp4
Формат файла: .mp4 (MPEG-4)
Размер файла: 694,06 MB
Длительность: 31mn 31s
Навигация по главам: Нет
Bitrate (все потоки): 3 078 Kbps
...при помощи: Lavf52.61.0
Название: Foos my balls baby

Тип потока: Видео
Длительность: 00:31:31
Кодек: AVC
Кодек/Профиль: High@L3.1
Кодек/ID: avc1
Размеры изображения: 1280 x 720 (16:9)
Частота кадров: 29.970 fps
Размер потока: 677 MiB (98%)
Битрейт: 3 000 Kbps
Библиотека кодирования: x264 core 85

Тип потока: Звук #1
Длительность: 00:31:31.543
Кодек: AAC
Кодек/ID: 40
Частота дискретизации: 44.1 KHz
Каналов: 2 channels
Битрейт: 70.1 Kbps
Размер потока: 15.8 MiB (2%)
Размер694.06 MB (727,770,396 байт)
Скачать Колледж Правил - CollegeRules - Foos My Balls Baby [720p]


button_offline Отзыв от chikaga
avatar 292173

спасяб  :-D :-D :-D :-D :-D :-D :-D :-D  ;-) ;-) ;-) ;-) ;-)

button_offline Отзыв от pasha74_74
avatar 743098

:w00t: :w00t: :w00t: :w00t: :w00t:


Смотрите бесплатное порно или эротику

Информация для правообладателей На ёгли вы скачаете порно, бесплатные фильмы, а также новинки кино. Все это бесплатно и без смс.