Cкачать бесплатно фильмы.
Поиск фильмов
Log Pass забыли?
  Бесплатные фильмы
Скачать Колледж правил - Collegerules - Ladies by day Freaks at night
КатегорияОргия
Похожие фильмы



Похожие онлайн фильмы
Постер фильма Колледж правил - Collegerules - Ladies by day Freaks at night
Колледж правил - Collegerules - Ladies by day Freaks at night
Фото фильма Колледж правил - Collegerules - Ladies by day Freaks at night
Колледж правил - Collegerules - Ladies by day Freaks at night

Обзор



These sorority girls are known for being beautiful, upstanding and real classy ladies. But what makes this sorority different than all the others is that these girls dont fuck around and like to get down when the lights go out! As part of their initiation to the sorority these newbies had to show off their dick sucking skills along with their sex noises and demonstrate how they like to get down. Like they say "face down, ass up; thats the way we like to fuck!" It was a real treat to watch these girls sucking on veggies and even fingering each other. There is nothing hotter than a college slut who knows how to polish your knob the right way and isn't ashamed to let you know.

Имя файла: Ladies by day Freaks at night.mp4
Формат файла: .mp4 (MPEG-4)
Размер файла: 1,00 GB
Длительность: 39mn 4s
Навигация по главам: Нет
Bitrate (все потоки): 3 675 Kbps
...при помощи: Lavf52.31.0
Название: Ladies by day Freaks at night

Тип потока: Видео
Длительность: 00:39:04
Кодек: AVC
Кодек/Профиль: High@L3.1
Кодек/ID: avc1
Размеры изображения: 1280 x 720 (16:9)
Частота кадров: 29.970 fps
Размер потока: 1 005 MiB (98%)
Битрейт: 3 596 Kbps
Библиотека кодирования: x264 core 67 r1148 400740b

Тип потока: Звук #1
Длительность: 00:39:04.704
Кодек: AAC
Кодек/ID: 40
Частота дискретизации: 44.1 KHz
Каналов: 2 channels
Битрейт: 72.0 Kbps
Размер потока: 20.3 MiB (2%)
Размер1.00 GB (1,077,255,549 байт)
Скачать Колледж правил - Collegerules - Ladies by day Freaks at night

:: ОТЗЫВЫ


button_offline Отзыв от maminov
avatar 744797

а такого не помню... :-( :w00t:

button_offline Отзыв от шара
avatar 803968

да :-D :-D :-D :-D :-D :-D :-P

РЕГИСТРАЦИЯ.

Смотрите бесплатное порно или эротику

footerLeft
Информация для правообладателей На ёгли вы скачаете порно, бесплатные фильмы, а также новинки кино. Все это бесплатно и без смс.