Cкачать бесплатно фильмы.
Поиск фильмов
Log Pass забыли?
  Бесплатные фильмы
Скачать Король говорит! , The King s Speech [x264] [2010 | BDRip]
КатегорияДрама / История
Похожие фильмы



Похожие онлайн фильмы
Постер фильма Король говорит! , The King s Speech [x264] [2010 | BDRip]
Король говорит! , The King s Speech [x264] [2010 | BDRip]

Трэйлер


I0k8V5s6WyU&feature=player_embedded

Обзор



Название: Король говорит!
Оригинальное название: The King s Speech
Год выхода: 2010
Cтрана: США|Великобритания|Австралия
Режиссер: Том Хупер
Cценарий: Дэвид Сайдлер
В ролях: Колин Фёрт, Хелена Бонем Картер, Джеффри Раш, Дерек Джекоби, Роберт Порталь, Ричард Диксон, Пол Трасселл, Эдриан Скарборо, Эндрю Хавилл, Чарльз Армстронг и др.
Продолжительность: 01:58:29
Язык: Русский Профессиональный (Полное дублирование) | Лицензия
Рип с лицензии R5!

О фильме:

«Когда Бог не может спасти короля, королева повернулась к тому, кто может»

Сюжет ленты расскажет о герцоге, который готовится вступить в должность британского короля Георга VI, отца нынешней королевы Елизаветы II. После того, как его брат отрекается от престола, герой неохотно соглашается на трон. Измученный страшным нервным заиканием и сомнениями в своих способностях руководить страной, Георг обращается за помощью к неортодоксальному логопеду по имени Лайонел Лог. После серии неожиданных техник и в результате дружбы двух непохожих людей, герой наконец обретает свой королевский голос и смело ведет Англию на войну.

http://zamolxismd.org/m/s1.directupload.net/images/110403/hybcsqck.pnghttp://zamolxismd.org/m/s7.directupload.net/images/110403/pvqb7jbn.png
http://zamolxismd.org/m/s1.directupload.net/images/110403/aimbwapr.pnghttp://zamolxismd.org/m/s1.directupload.net/images/110403/xg347i2p.png
http://zamolxismd.org/m/s7.directupload.net/images/110403/29mhg28z.pnghttp://zamolxismd.org/m/s7.directupload.net/images/110403/25z4tgh4.png
http://zamolxismd.org/m/s7.directupload.net/images/110403/vxjfmdaw.pnghttp://zamolxismd.org/m/s1.directupload.net/images/110403/tu8asq5s.png
http://zamolxismd.org/m/s7.directupload.net/images/110403/zglrwg3q.pnghttp://zamolxismd.org/m/s7.directupload.net/images/110403/zwi56ong.png

Оскар, 2011 год писал

Победитель (4):
* Лучший фильм
* Лучшая мужская роль (Колин Фёрт)
* Лучший режиссер (Том Хупер)
* Лучший сценарий

Номинации (8):
* Лучшая мужская роль второго плана (Джеффри Раш)
* Лучшая женская роль второго плана (Хелена Бонем Картер)
* Лучшая работа оператора
* Лучшие декорации
* Лучшие костюмы
* Лучший звук
* Лучший монтаж
* Лучший саундтрек


MediaInfo писал

General
Complete name                    : D:Koroli.govorit.2010.D.x264.TUT.Ciumac.mkv
Format                          : Matroska
File size                        : 2.05 GiB
Duration                        : 1h 58mn
Overall bit rate                : 2 478 Kbps
Encoded date                    : UTC 2011-04-09 11:40:51
Writing application              : mkvmerge v2.1.0 ('Another Place To Fall') built on Aug 19 2007 13:40:07
Writing library                  : libebml v0.7.7 + libmatroska v0.8.1

Video
ID                              : 1
Format                          : AVC
Format/Info                      : Advanced Video Codec
Format profile                  : High@L5.1
Format settings, CABAC          : Yes
Format settings, ReFrames        : 5 frames
Muxing mode                      : Container profile=Unknown@5.1
Codec ID                        : V_MPEG4/ISO/AVC
Duration                        : 1h 58mn
Bit rate                        : 1 707 Kbps
Width                            : 720 pixels
Height                          : 400 pixels
Display aspect ratio            : 16:9
Frame rate                      : 23.976 fps
Color space                      : YUV
Chroma subsampling              : 4:2:0
Bit depth                        : 8 bits
Scan type                        : Progressive
Bits/(Pixel*Frame)              : 0.247
Stream size                      : 1.37 GiB (67%)
Writing library                  : x264 core 112 r1867 22bfd31
Encoding settings                : cabac=1 / ref=5 / deblock=1:-3:-3 / analyse=0x3:0x133 / me=hex / subme=7 / psy=1 / psy_rd=1.00:0.15 / mixed_ref=1 / me_range=16 / chroma_me=1 / trellis=1 / 8x8dct=1 / cqm=0 / deadzone=21,11 / fast_pskip=1 / chroma_qp_offset=-3 / threads=3 / sliced_threads=0 / nr=0 / decimate=1 / interlaced=0 / constrained_intra=0 / bframes=6 / b_pyramid=2 / b_adapt=1 / b_bias=0 / direct=1 / weightb=1 / open_gop=0 / weightp=2 / keyint=250 / keyint_min=23 / scenecut=40 / intra_refresh=0 / rc_lookahead=40 / rc=2pass / mbtree=1 / bitrate=1707 / ratetol=1.0 / qcomp=0.60 / qpmin=0 / qpmax=51 / qpstep=4 / cplxblur=20.0 / qblur=0.5 / ip_ratio=1.40 / aq=1:1.00
Language                        : English

Audio #1
ID                              : 2
Format                          : AC-3
Format/Info                      : Audio Coding 3
Mode extension                  : CM (complete main)
Codec ID                        : A_AC3
Duration                        : 1h 58mn
Bit rate mode                    : Constant
Bit rate                        : 384 Kbps
Channel(s)                      : 6 channels
Channel positions                : Front: L C R, Side: L R, LFE
Sampling rate                    : 48.0 KHz
Bit depth                        : 16 bits
Video delay                      : 2ms
Stream size                      : 325 MiB (15%)
Language                        : English

Audio #2
ID                              : 3
Format                          : AC-3
Format/Info                      : Audio Coding 3
Mode extension                  : CM (complete main)
Codec ID                        : A_AC3
Duration                        : 1h 58mn
Bit rate mode                    : Constant
Bit rate                        : 384 Kbps
Channel(s)                      : 6 channels
Channel positions                : Front: L C R, Side: L R, LFE
Sampling rate                    : 48.0 KHz
Bit depth                        : 16 bits
Stream size                      : 325 MiB (15%)
Title                            : D.AC3.6ch.348



Пожалуйста не забывайте нажимать СПАСИБО - автору приятно и полезно!




ФАЙЛ
Качество: BDRip
Видео: AVC, 720x400, 23.976 fps, 1 707 Kbps
Звук: Russian|English: АС3, 6 сh, 384 kbit/s, 48.00 KHz
Размер2.05 GB (2,201,884,178 байт)
Скачать Король говорит! , The King s Speech [x264] [2010 | BDRip]

:: ОТЗЫВЫ


button_offline Отзыв от weker
avatar 699752

оооооооооо поглядим)))))

button_offline Отзыв от egik333
avatar 749985

Обожаю такие фильмы ! Спасибо !!!

button_offline Отзыв от drishlio
avatar 749758

Супер фильм,рекомендую к просмотру!!!! Не пожалеете! :-)

РЕГИСТРАЦИЯ.

Смотрите бесплатное порно или эротику

footerLeft
Информация для правообладателей На ёгли вы скачаете порно, бесплатные фильмы, а также новинки кино. Все это бесплатно и без смс.