Cкачать бесплатно фильмы.
Поиск фильмов
Log Pass забыли?
  Бесплатные фильмы
Скачать Лара не Крофт - Larin Lane
КатегорияЖёсткое / Анал
Похожие фильмы



Похожие онлайн фильмы
Постер фильма Лара не Крофт - Larin Lane
Лара не Крофт - Larin Lane

Обзор



Шлюшку сняли и оттрахали дома в два штыря

http://thumbnails115.imagebam.com/50591/f216c2505907536.jpg http://thumbnails115.imagebam.com/50591/a50537505907537.jpg http://thumbnails116.imagebam.com/50591/71ed8f505907538.jpg http://thumbnails115.imagebam.com/50591/e9d4df505907540.jpg http://thumbnails115.imagebam.com/50591/2d0fc0505907542.jpg http://thumbnails115.imagebam.com/50591/9c8551505907544.jpg http://thumbnails116.imagebam.com/50591/3d3ee4505907546.jpg http://thumbnails116.imagebam.com/50591/cef6dd505907548.jpg

General
Complete name                  : C:UsersUserDownloadsAvsPhelpLarin Lane.mp4
Format                         : MPEG-4
Format profile                 : Base Media
Codec ID                       : isom
File size                      : 538 MiB
Duration                       : 22mn 36s
Overall bit rate mode          : Variable
Overall bit rate               : 3 329 Kbps
Encoded date                   : UTC 1970-01-01 00:00:00
Tagged date                    : UTC 1970-01-01 00:00:00
Writing application            : Lavf52.110.0
Copyright                      : IzqYgNQyRtjjLeqafxm138zqskFnu5qUgxLJiVckoLQZ+5LQ8H8C6795Y5uM243m

Video
ID                             : 1
Format                         : AVC
Format/Info                    : Advanced Video Codec
Format profile                 : High@L3.1
Format settings, CABAC         : Yes
Format settings, ReFrames      : 4 frames
Codec ID                       : avc1
Codec ID/Info                  : Advanced Video Coding
Duration                       : 22mn 36s
Bit rate                       : 3 100 Kbps
Width                          : 1 280 pixels
Height                         : 720 pixels
Display aspect ratio           : 16:9
Frame rate mode                : Constant
Frame rate                     : 29.970 fps
Color space                    : YUV
Chroma subsampling             : 4:2:0
Bit depth                      : 8 bits
Scan type                      : Progressive
Bits/(Pixel*Frame)             : 0.112
Stream size                    : 498 MiB (93%)
Writing library                : x264 core 122
Encoding settings              : cabac=1 / ref=3 / deblock=1:0:0 / analyse=0x3:0x113 / me=hex / subme=7 / psy=1 / psy_rd=1.00:0.00 / mixed_ref=1 / me_range=16 / chroma_me=1 / trellis=1 / 8x8dct=1 / cqm=0 / deadzone=21,11 / fast_pskip=1 / chroma_qp_offset=-2 / threads=8 / sliced_threads=0 / nr=0 / decimate=1 / interlaced=0 / bluray_compat=0 / constrained_intra=0 / bframes=3 / b_pyramid=2 / b_adapt=1 / b_bias=0 / direct=1 / weightb=1 / open_gop=0 / weightp=2 / keyint=60 / keyint_min=25 / scenecut=40 / intra_refresh=0 / rc_lookahead=40 / rc=abr / mbtree=1 / bitrate=3100 / ratetol=1.0 / qcomp=0.60 / qpmin=10 / qpmax=51 / qpstep=4 / ip_ratio=1.41 / aq=1:1.00
Language                       : English
Encoded date                   : UTC 1970-01-01 00:00:00
Tagged date                    : UTC 2012-11-28 20:15:43

Audio
ID                             : 2
Format                         : AAC
Format/Info                    : Advanced Audio Codec
Format profile                 : LC
Codec ID                       : 40
Duration                       : 22mn 36s
Bit rate mode                  : Variable
Bit rate                       : 96.0 Kbps
Maximum bit rate               : 128 Kbps
Channel(s)                     : 2 channels
Channel positions              : Front: L R
Sampling rate                  : 44.1 KHz
Compression mode               : Lossy
Stream size                    : 15.6 MiB (3%)
Language                       : English
Encoded date                   : UTC 1970-01-01 00:00:00
Tagged date                    : UTC 2012-11-28 20:15:43

Other #1
ID                             : 65536
Type                           : Hint
Format                         : RTP
Codec ID                       : rtp
Duration                       : 22mn 36s
Encoded date                   : UTC 2012-11-28 20:15:30
Tagged date                    : UTC 2012-11-28 20:15:43

Other #2
ID                             : 65537
Type                           : Hint
Format                         : RTP
Codec ID                       : rtp
Duration                       : 22mn 36s
Encoded date                   : UTC 2012-11-28 20:15:42
Tagged date                    : UTC 2012-11-28 20:15:43
Bit rate mode                  : VBR

Размер538.22 MB (564,365,788 байт)
Скачать Лара не Крофт - Larin Lane

:: Отзывы



Отзывы отсутствуют.

 :: Отзывов нет
РЕГИСТРАЦИЯ.

Смотрите бесплатное порно или эротику

footerLeft
Информация для правообладателей На ёгли вы скачаете порно, бесплатные фильмы, а также новинки кино. Все это бесплатно и без смс.