Cкачать бесплатно фильмы.
Поиск фильмов
Log Pass забыли?
  Бесплатные фильмы
Скачать Лечащая упаковка 1 от Витольди (3 ролика) - Healing Pack from Vitoldi [1]
КатегорияЛесбо / Любители / Зрелые / Молодые / Груди / Рукоделие
Похожие фильмы



Похожие онлайн фильмы
Постер фильма Лечащая упаковка 1 от Витольди (3 ролика) - Healing Pack from Vitoldi [1]
Лечащая упаковка 1 от Витольди (3 ролика) - Healing Pack from Vitoldi [1]

Обзор



3 ролика в паке:

Mature Busty Secretary Sex
Horny MILF Lesbians Eat Each Other's Wet Pussies
Rachel Steel



видео:

1.Mature Busty Secretary Sex DrTuber.com.flv
      Format : Flash Video
      File size : 85.4 MiB
      Duration : 25mn 27s
      Overall bit rate : 469 Kbps
      Tagging application : Yet Another Metadata Injector for FLV - Version 1.6
   Video
      Format : VP6
      Duration : 25mn 27s
      Bit rate : 388 Kbps
      Width : 528 pixels
      Height : 400 pixels
      Display aspect ratio : 4:3
      Frame rate : 25.000 fps
      Bits/(Pixel*Frame) : 0.073
      Stream size : 72.7 MiB (85%)
  




2.

Horny MILF Lesbians Eat Each Other's Wet Pussies - Mozilla Firefox.flv
      Format : Flash Video
      File size : 28.8 MiB
      Duration : 5mn 8s
      Overall bit rate : 785 Kbps
      Tagging application : Yet Another Metadata Injector for FLV - Version 1.4
   Video
      Format : AVC
      Format/Info : Advanced Video Codec
      Format profile : High@L3.0
      Format settings, CABAC : Yes
      Format settings, ReFrames : 4 frames
      Muxing mode : Container profile=Unknown@3.0
      Duration : 5mn 8s
      Bit rate : 696 Kbps
      Nominal bit rate : 700 Kbps
      Width : 640 pixels
      Height : 480 pixels
      Display aspect ratio : 4:3
      Frame rate mode : Variable
      Frame rate : 25.000 fps
      Resolution : 24 bits
      Colorimetry : 4:2:0
      Scan type : Progressive
      Bits/(Pixel*Frame) : 0.091
      Stream size : 26.2 MiB (91%)
      Writing library : x264 core 112 r1867 22bfd31


3.


Rachel Steel.mp4
      Format : MPEG-4
      Format profile : Base Media
      Codec ID : isom
      File size : 59.0 MiB
      Duration : 10mn 53s
      Overall bit rate : 758 Kbps
      Encoded date : UTC 1970-01-01 00:00:00
      Tagged date : UTC 1970-01-01 00:00:00
      Writing application : Lavf52.40.0
   Video #1
      ID : 1
      Format : AVC
      Format/Info : Advanced Video Codec
      Format profile : High@L3.0
      Format settings, CABAC : Yes
      Format settings, ReFrames : 3 frames
      Codec ID : avc1
      Codec ID/Info : Advanced Video Coding
      Duration : 10mn 52s
      Bit rate mode : Variable
      Bit rate : 626 Kbps
      Nominal bit rate : 600 Kbps
      Width : 640 pixels
      Height : 480 pixels
      Display aspect ratio : 4:3
      Frame rate mode : Constant
      Frame rate : 25.000 fps
      Resolution : 24 bits
      Colorimetry : 4:2:0
      Scan type : Progressive
      Bits/(Pixel*Frame) : 0.082
      Stream size : 48.7 MiB (83%)
      Writing library : x264 core 79


Скрины:
http://pic4you.ru/allimage/y2011/12-28/7830/1554613-thumb.jpeg
http://pic4you.ru/allimage/y2011/12-28/7830/1554614-thumb.jpeg
http://pic4you.ru/allimage/y2011/12-28/7830/1554615-thumb.jpeg



http://i31.fastpic.ru/big/2011/1228/95/9373b99fb6a61dbf0015e9f20131e495.jpg
http://i31.fastpic.ru/big/2011/1228/69/80837bb16d4c1ef6dbcd03a9bd932969.jpg
http://i31.fastpic.ru/big/2011/1228/69/1001a5733f7591233dc658e0a25aba69.jpg
Размер173.96 MB (182,406,344 байт)
Скачать Лечащая упаковка 1 от Витольди (3 ролика) - Healing Pack from Vitoldi [1]
Файлы
[Посмотреть список]
11 файлы

:: ОТЗЫВЫ


button_offline Отзыв от Palaris
avatar 761588

тю! сам посмотрел, дай и другим...
а если не нравится, напиши почему. а то сразу "бред"...

button_offline Отзыв от Mrlev2010
avatar 787837

Вот это сладкий десерт))

button_offline Отзыв от andrewww1972
avatar 804127

Мясистые сиски!!!!!! 8-) 8-) 8-)

button_offline Отзыв от romeo54321
avatar 600003

фуу бред не качайте, удалите это :shit: :shit: :shit:

РЕГИСТРАЦИЯ.

Смотрите бесплатное порно или эротику

footerLeft
Информация для правообладателей На ёгли вы скачаете порно, бесплатные фильмы, а также новинки кино. Все это бесплатно и без смс.