Cкачать бесплатно фильмы.
Поиск фильмов
Log Pass забыли?
  Бесплатные фильмы
Скачать Лизание пизды - Holly Halston
КатегорияЗрелые / Орал / Груди
Похожие фильмы



Похожие онлайн фильмы
Постер фильма Лизание пизды - Holly Halston
Лизание пизды - Holly Halston

Обзор



Шлюха заставляет какого-то дебила себе лизать промежность


General
Complete name                            : C:UsersUserDownloadsHolly Halston.mkv
Format                                   : Matroska
Format version                           : Version 1
File size                                : 461 MiB
Duration                                 : 4mn 4s
Overall bit rate mode                    : Variable
Overall bit rate                         : 15.8 Mbps
Writing application                      : Cyberlink Matroska Muxer v1.0.0
Writing library                          : libebml v0.7.8 + libmatroska v0.8.1

Video
ID                                       : 1
Format                                   : AVC
Format/Info                              : Advanced Video Codec
Format profile                           : High@L4.1
Format settings, CABAC                   : Yes
Format settings, ReFrames                : 2 frames
Codec ID                                 : V_MS/VFW/FOURCC / H264
Duration                                 : 4mn 4s
Bit rate mode                            : Variable
Bit rate                                 : 15.2 Mbps
Maximum bit rate                         : 17.0 Mbps
Width                                    : 1 920 pixels
Height                                   : 1 080 pixels
Display aspect ratio                     : 16:9
Frame rate mode                          : Constant
Frame rate                               : 23.976 fps
Color space                              : YUV
Chroma subsampling                       : 4:2:0
Bit depth                                : 8 bits
Scan type                                : Progressive
Bits/(Pixel*Frame)                       : 0.306
Stream size                              : 444 MiB (96%)
Language                                 : English
Default                                  : Yes
Forced                                   : No

Audio
ID                                       : 2
Format                                   : AC-3
Format/Info                              : Audio Coding 3
Mode extension                           : CM (complete main)
Format settings, Endianness              : Big
Codec ID                                 : A_AC3
Duration                                 : 4mn 4s
Bit rate mode                            : Constant
Bit rate                                 : 256 Kbps
Channel(s)                               : 2 channels
Channel positions                        : Front: L R
Sampling rate                            : 48.0 KHz
Bit depth                                : 16 bits
Compression mode                         : Lossy
Stream size                              : 7.47 MiB (2%)
Language                                 : English
Default                                  : Yes
Forced                                   : No


http://i73.fastpic.ru/thumb/2015/1114/2c/3fbc7bc860e417316b506282b9278c2c.jpeg http://i73.fastpic.ru/thumb/2015/1114/27/0889befa6f8371cac8030509da70f727.jpeg http://i73.fastpic.ru/thumb/2015/1114/c1/f78431e56f854af83994dc47ffe09bc1.jpeg http://i73.fastpic.ru/thumb/2015/1114/c9/f1ae58c02f3aaad6311c9eae4378e7c9.jpeg
Размер460.85 MB (483,231,726 байт)
Скачать Лизание пизды - Holly Halston

:: ОТЗЫВЫ


button_offline Отзыв от Goodnews
avatar 753742

Нахуй наложили эту музыку ???   :shit:

РЕГИСТРАЦИЯ.

Смотрите бесплатное порно или эротику

footerLeft
Информация для правообладателей На ёгли вы скачаете порно, бесплатные фильмы, а также новинки кино. Все это бесплатно и без смс.