Cкачать бесплатно фильмы.
Поиск фильмов
Log Pass забыли?
  Бесплатные фильмы
Скачать Луана - Louanna
Видео закрыто попробуйте наити похожие Луана - Louanna
КатегорияАнал
Похожие фильмы



Похожие онлайн фильмы
Постер фильма Луана - Louanna
Луана - Louanna
Фото фильма Луана - Louanna
Луана - Louanna

Обзор



Format                           : Windows Media
File size                        : 287 MiB
Duration                         : 16mn 47s
Overall bit rate mode            : Variable
Overall bit rate                 : 2 387 Kbps
Maximum Overall bit rate         : 6 052 Kbps
Movie name                       : 0136 UnrealBank
Encoded date                     : UTC 2007-06-08 23:19:45.406

Video
ID                               : 2
Format                           : WMV2
Codec ID                         : WMV2
Codec ID/Info                    : Windows Media Video 8
Duration                         : 16mn 47s
Bit rate mode                    : Variable
Bit rate                         : 2 561 Kbps
Width                            : 640 pixels
Height                           : 480 pixels
Display aspect ratio             : 4:3
Frame rate                       : 23.976 fps
Bit depth                        : 8 bits
Bits/(Pixel*Frame)               : 0.348
Stream size                      : 308 MiB

Audio
ID                               : 1
Format                           : WMA
Format version                   : Version 2
Codec ID                         : 161
Codec ID/Info                    : Windows Media Audio
Duration                         : 16mn 47s
Bit rate mode                    : Constant
Bit rate                         : 64.0 Kbps
Channel(s)                       : 2 channels
Sampling rate                    : 44.1 KHz
Bit depth                        : 16 bits
Stream size                      : 7.69 MiB (3%)
Размер286.60 MB (300,520,718 байт)
Скачать Луана - Louanna
Видео закрыто попробуйте наити похожие Луана - Louanna

:: ОТЗЫВЫ


button_offline Отзыв от Blackzero
avatar 421842

Сэнкью!!! :w00t: ;-) :-D

РЕГИСТРАЦИЯ.

Смотрите бесплатное порно или эротику

footerLeft
Информация для правообладателей На ёгли вы скачаете порно, бесплатные фильмы, а также новинки кино. Все это бесплатно и без смс.