Cкачать бесплатно фильмы.
Поиск фильмов
Log Pass забыли?
  Бесплатные фильмы
Скачать Лучший спорт - это секс - Brandi Love
КатегорияЗрелые / Груди
Похожие фильмы



Похожие онлайн фильмы
Постер фильма Лучший спорт - это секс - Brandi Love
Лучший спорт - это секс - Brandi Love

Обзор



Зрелая шалава ебется в тренажерке


General
Complete name                            : C:UsersUserDownloadsBrandi Love (Dirty Rotten Mother Fuckers 6.mp4
Format                                   : MPEG-4
Format profile                           : Base Media
Codec ID                                 : isom
File size                                : 1.07 GiB
Duration                                 : 37mn 41s
Overall bit rate                         : 4 079 Kbps
Encoded date                             : UTC 2013-06-05 18:06:17
Tagged date                              : UTC 2013-06-05 18:06:17
Writing application                      : Lavf53.24.2

Video
ID                                       : 1
Format                                   : AVC
Format/Info                              : Advanced Video Codec
Format profile                           : Main@L3.1
Format settings, CABAC                   : Yes
Format settings, ReFrames                : 3 frames
Codec ID                                 : avc1
Codec ID/Info                            : Advanced Video Coding
Duration                                 : 37mn 40s
Bit rate                                 : 4 000 Kbps
Width                                    : 1 280 pixels
Height                                   : 720 pixels
Display aspect ratio                     : 16:9
Frame rate mode                          : Constant
Frame rate                               : 29.970 fps
Color space                              : YUV
Chroma subsampling                       : 4:2:0
Bit depth                                : 8 bits
Scan type                                : Progressive
Bits/(Pixel*Frame)                       : 0.145
Stream size                              : 1.05 GiB (98%)
Writing library                          : x264 core 124 r2197 69a0443
Encoding settings                        : cabac=1 / ref=3 / deblock=1:0:0 / analyse=0x1:0x111 / me=hex / subme=5 / psy=0 / mixed_ref=0 / me_range=16 / chroma_me=1 / trellis=1 / 8x8dct=0 / cqm=0 / deadzone=21,11 / fast_pskip=1 / chroma_qp_offset=0 / threads=6 / sliced_threads=0 / nr=0 / decimate=1 / interlaced=0 / bluray_compat=0 / constrained_intra=0 / bframes=3 / b_pyramid=0 / b_adapt=1 / b_bias=0 / direct=1 / weightb=0 / open_gop=0 / weightp=2 / keyint=300 / keyint_min=29 / scenecut=40 / intra_refresh=0 / rc=abr / mbtree=0 / bitrate=4000 / ratetol=1.0 / qcomp=0.60 / qpmin=10 / qpmax=51 / qpstep=4 / ip_ratio=1.40 / pb_ratio=1.30 / aq=1:1.00
Language                                 : English
Encoded date                             : UTC 2013-06-05 18:06:17
Tagged date                              : UTC 2013-06-05 18:06:17

Audio
ID                                       : 2
Format                                   : AAC
Format/Info                              : Advanced Audio Codec
Format profile                           : LC
Codec ID                                 : 40
Duration                                 : 37mn 41s
Bit rate mode                            : Constant
Bit rate                                 : 64.1 Kbps
Channel(s)                               : 2 channels
Channel positions                        : Front: L R
Sampling rate                            : 48.0 KHz
Compression mode                         : Lossy
Stream size                              : 17.3 MiB (2%)
Language                                 : English
Encoded date                             : UTC 2013-06-05 18:06:17
Tagged date                              : UTC 2013-06-05 18:06:17


http://i67.fastpic.ru/big/2015/1121/26/70573ce62bead8c3e715ca7bc1ed2626.gif http://i66.fastpic.ru/big/2015/1121/7b/c31f19440a26965a2ec0f8ae4fa95e7b.gif
http://i65.fastpic.ru/big/2015/1121/f9/e9e1dd7391694f56a9db1839ae24e2f9.gif http://i66.fastpic.ru/big/2015/1121/50/8b84492c05ceae86489ec963b4d32850.gif


http://i65.fastpic.ru/big/2015/1121/69/f04f5f3fa41604e5180a936073efa969.jpg
Размер1.07 GB (1,152,913,165 байт)
Скачать Лучший спорт - это секс - Brandi Love

:: ОТЗЫВЫ


button_offline Отзыв от mesalchin
avatar 480868

классные скрины ,спасибо
8-)

РЕГИСТРАЦИЯ.

Смотрите бесплатное порно или эротику

footerLeft
Информация для правообладателей На ёгли вы скачаете порно, бесплатные фильмы, а также новинки кино. Все это бесплатно и без смс.