Cкачать бесплатно фильмы.
Поиск фильмов
Log Pass забыли?
  Бесплатные фильмы
Скачать Мама ревёт и с наколками,решила отдаться - Mom koling(nakolka) and riavk(revet) decided to play 05.05.11 10.43
КатегорияДругое
Похожие фильмы



Похожие онлайн фильмы
Постер фильма Мама ревёт и с наколками,решила отдаться - Mom koling(nakolka) and riavk(revet) decided to play 05.05.11 10.43
Мама ревёт и с наколками,решила отдаться - Mom koling(nakolka) and riavk(revet) decided to play 05.05.11 10.43

Обзор



Описание:

Мама с наколкой и рёвом - двинулась в наступление.



Информация о видео:

      Format : Flash Video
      File size : 87.6 MiB
      Duration : 26mn 0s
      Overall bit rate : 471 Kbps
      Tagged date : UTC 2011-04-25 11:34:00
      Tagging application : inlet media FLVTool2 v1.0.6 - http://www.inlet-media.de/flvtool2
   Video
      Format : VP6
      Duration : 26mn 0s
      Bit rate : 399 Kbps
      Width : 528 pixels
      Height : 304 pixels
      Display aspect ratio : 16/9
      Frame rate : 25.000 fps
      Bits/(Pixel*Frame) : 0.099
      Stream size : 74.6 MiB (85%)
   Audio
      Format : MPEG Audio
      Format version : Version 2
      Format profile : Layer 3
      Duration : 26mn 0s
      Bit rate mode : Constant
      Bit rate : 64.0 Kbps
      Channel(s) : 2 channels
      Sampling rate : 22.05 KHz
      Resolution : 16 bits
      Stream size : 12.6 MiB (14%)
      Writing library : LAME3.98.4

Скрины:
http://pic4you.ru/allimage/y2011/05-05/7830/877528-thumb.jpg
http://pic4you.ru/allimage/y2011/05-05/7830/877529-thumb.jpg
Размер87.90 MB (92,171,589 байт)
Скачать Мама ревёт и с наколками,решила отдаться - Mom koling(nakolka) and riavk(revet) decided to play 05.05.11 10.43
Файлы
[Посмотреть список]
5 файлы

:: ОТЗЫВЫ


button_offline Отзыв от killko
avatar 463441

:!: Не выкладывайте вы на других хостингах скрины... :!: Их хер посмотришь там... :!: обязательно на вирусные страницы перекидывает... :!: А если комп медленный то вообще наверное хер посмотришь...  :!: :!: :!:

button_offline Отзыв от foxpdll
avatar 352924

ну зарабатывает человек таким образом

button_offline Отзыв от Vitoldi
avatar 763232

Нормально смотрит,вирусов на моём нету,а если реклама надоедает - ставишь adblocker и всего делов.

button_offline Отзыв от shkut
avatar 254068

качнем... :-D :-D :-D :-D :-D

РЕГИСТРАЦИЯ.

Смотрите бесплатное порно или эротику

footerLeft
Информация для правообладателей На ёгли вы скачаете порно, бесплатные фильмы, а также новинки кино. Все это бесплатно и без смс.