Cкачать бесплатно фильмы.
Поиск фильмов
Log Pass забыли?
  Бесплатные фильмы
Скачать Мамми выпад молодняк,сладкая куряга красуется и трахает паренька - Mommy blues sex,sweety smoker flaunts and fuck a boy 09.05.11 Vitoldi Release
КатегорияСюжетное / Любители / Молодые / Другое / Груди / Мастурбация
Похожие фильмы



Похожие онлайн фильмы
Постер фильма Мамми выпад молодняк,сладкая куряга красуется и трахает паренька - Mommy blues sex,sweety smoker flaunts and fuck a boy 09.05.11 Vitoldi Release
Мамми выпад молодняк,сладкая куряга красуется и трахает паренька - Mommy blues sex,sweety smoker flaunts and fuck a boy 09.05.11 Vitoldi Release

Обзор



Описание:

Мамми блюз - красивая мама,наверно курящая ибо сипит хрипит голос,но для секса это лишь подогревает -
с энтузиазмом епёт своего мальчика.




Информация о видео:

      Format : Flash Video
      File size : 68.7 MiB
      Duration : 20mn 13s
      Overall bit rate : 475 Kbps
      Tagged date : UTC 2011-05-03 12:16:45
      Tagging application : inlet media FLVTool2 v1.0.6 - http://www.inlet-media.de/flvtool2
   Video
      Format : VP6
      Duration : 20mn 13s
      Bit rate : 403 Kbps
      Width : 528 pixels
      Height : 304 pixels
      Display aspect ratio : 16:9
      Frame rate : 25.000 fps
      Bits/(Pixel*Frame) : 0.100
      Stream size : 58.6 MiB (85%)
   Audio
      Format : MPEG Audio
      Format version : Version 2
      Format profile : Layer 3
      Duration : 20mn 13s
      Bit rate mode : Constant
      Bit rate : 64.0 Kbps
      Channel(s) : 2 channels
      Sampling rate : 22.05 KHz
      Resolution : 16 bits
      Stream size : 9.79 MiB (14%)
      Writing library : LAME3.98.4

Скрины:
http://pic4you.ru/allimage/y2011/05-09/7830/889551-thumb.jpg
http://pic4you.ru/allimage/y2011/05-09/7830/889552-thumb.jpg
Размер68.94 MB (72,289,095 байт)
Скачать Мамми выпад молодняк,сладкая куряга красуется и трахает паренька - Mommy blues sex,sweety smoker flaunts and fuck a boy 09.05.11 Vitoldi Release
Файлы
[Посмотреть список]
5 файлы

:: ОТЗЫВЫ


button_offline Отзыв от Anri82
avatar 378700

да... тётя отжигает)))))

button_offline Отзыв от shkut
avatar 254068

так и дальше!!!! спасибо!!!!

РЕГИСТРАЦИЯ.

Смотрите бесплатное порно или эротику

footerLeft
Информация для правообладателей На ёгли вы скачаете порно, бесплатные фильмы, а также новинки кино. Все это бесплатно и без смс.