Cкачать бесплатно фильмы.
Поиск фильмов
Log Pass забыли?
  Бесплатные фильмы
Скачать Массаж перерос в еблю - Kendall Karson (Boy Toy Masseuse)
КатегорияГруди
Похожие фильмы



Похожие онлайн фильмы
Постер фильма Массаж перерос в еблю - Kendall Karson (Boy Toy Masseuse)
Массаж перерос в еблю - Kendall Karson (Boy Toy Masseuse)

Обзор



Шлюха, которой делают массаж, принимается за привычное


General
Complete name                            : C:UsersUserDownloadsKendall Karson (Boy Toy Masseuse).mp4
Format                                   : MPEG-4
Format profile                           : Base Media
Codec ID                                 : isom
File size                                : 302 MiB
Duration                                 : 30mn 57s
Overall bit rate                         : 1 365 Kbps
Writing application                      : Lavf55.44.100

Video
ID                                       : 1
Format                                   : AVC
Format/Info                              : Advanced Video Codec
Format profile                           : Baseline@L3.1
Format settings, CABAC                   : No
Format settings, ReFrames                : 5 frames
Codec ID                                 : avc1
Codec ID/Info                            : Advanced Video Coding
Duration                                 : 30mn 57s
Bit rate                                 : 1 233 Kbps
Width                                    : 640 pixels
Height                                   : 360 pixels
Display aspect ratio                     : 16:9
Frame rate mode                          : Constant
Frame rate                               : 23.976 fps
Color space                              : YUV
Chroma subsampling                       : 4:2:0
Bit depth                                : 8 bits
Scan type                                : Progressive
Bits/(Pixel*Frame)                       : 0.223
Stream size                              : 273 MiB (90%)
Writing library                          : x264 core 142 r2431 a5831aa
Encoding settings                        : cabac=0 / ref=5 / deblock=1:0:0 / analyse=0x1:0x111 / me=umh / subme=8 / psy=1 / psy_rd=1.00:0.00 / mixed_ref=1 / me_range=16 / chroma_me=1 / trellis=1 / 8x8dct=0 / cqm=0 / deadzone=21,11 / fast_pskip=1 / chroma_qp_offset=-2 / threads=2 / lookahead_threads=1 / sliced_threads=0 / nr=0 / decimate=1 / interlaced=0 / bluray_compat=0 / constrained_intra=0 / bframes=0 / weightp=0 / keyint=250 / keyint_min=23 / scenecut=40 / intra_refresh=0 / rc_lookahead=50 / rc=crf / mbtree=1 / crf=18.0 / qcomp=0.60 / qpmin=0 / qpmax=69 / qpstep=4 / ip_ratio=1.40 / aq=1:1.00
Language                                 : English

Audio
ID                                       : 2
Format                                   : AAC
Format/Info                              : Advanced Audio Codec
Format profile                           : LC
Codec ID                                 : 40
Duration                                 : 30mn 57s
Bit rate mode                            : Constant
Bit rate                                 : 128 Kbps
Channel(s)                               : 2 channels
Channel positions                        : Front: L R
Sampling rate                            : 48.0 KHz
Compression mode                         : Lossy
Stream size                              : 28.3 MiB (9%)
Language                                 : English


http://i67.fastpic.ru/big/2015/1128/cc/e022760cab7a58d211c5bc94a65835cc.gif http://i74.fastpic.ru/big/2015/1128/99/9e5a7ecf0c05de5cd4c607845d04fc99.gif
http://i75.fastpic.ru/big/2015/1128/2f/5ab0642119807b67f5048eacff77322f.gif http://i74.fastpic.ru/big/2015/1128/11/728c076fe10db1ea3fae4434f92a8211.gif


http://i75.fastpic.ru/big/2015/1128/07/81f90902eb434ba1bdde200906be1407.jpg
Размер302.29 MB (316,975,773 байт)
Скачать Массаж перерос в еблю - Kendall Karson (Boy Toy Masseuse)

:: Отзывы



Отзывы отсутствуют.

 :: Отзывов нет
РЕГИСТРАЦИЯ.

Смотрите бесплатное порно или эротику

footerLeft
Информация для правообладателей На ёгли вы скачаете порно, бесплатные фильмы, а также новинки кино. Все это бесплатно и без смс.