Cкачать бесплатно фильмы.
Поиск фильмов
Log Pass забыли?
  Бесплатные фильмы
Скачать Медвежатник , The Score [x264] [2001 | BDRip]
КатегорияБоевик / Триллер
Похожие фильмы



Похожие онлайн фильмы
Постер фильма Медвежатник , The Score [x264] [2001 | BDRip]
Медвежатник , The Score [x264] [2001 | BDRip]

Трэйлер


x5_2U6_b57M&feature=player_embedded

Обзор



Название: Медвежатник
Оригинальное название: The Score
Год выхода: 2001
Cтрана: США / Германия        
Режиссер: Фрэнк Оз
Cценарий: Карио Салем, Лем Доббс, Скотт Маршалл Смит
В ролях: Роберт Де Ниро, Эдвард Нортон, Марлон Брандо, Анжела Бассетт, Гэри Фармер, Джеми Харрольд
Продолжительность: 02:04:02
Язык: Русский Профессиональный (Многоголосый)

О фильме:

«Нет партнеров в преступлении»

Максу удается уговорить Ника Уэллса поступиться своими двумя самыми важными правилами: всегда работать в одиночку и никогда не грабить в своем городе. Макс нашел ему партнера. События начинают стремительно развиваться. Каждый из медвежатников старается обыграть другого. Планируемое ограбление держит всех в напряжении от начала и до конца. Развязка наступает неожиданно…

http://zamolxismd.org/m/iceimg.com/i/82/50/cb871b433d.pnghttp://zamolxismd.org/m/iceimg.com/i/02/2d/2ecbaea5cc.png
http://zamolxismd.org/m/iceimg.com/i/64/89/5844b67b46.pnghttp://zamolxismd.org/m/iceimg.com/i/bd/90/3606d462ce.png
http://zamolxismd.org/m/iceimg.com/i/90/f4/3b1c046251.pnghttp://zamolxismd.org/m/iceimg.com/i/51/04/f4a7f3a6c7.png
http://zamolxismd.org/m/iceimg.com/i/e3/b5/661f2f78f8.pnghttp://zamolxismd.org/m/iceimg.com/i/1b/4c/bd81eca222.png

MediaInfo писал

Полное имя                      : D:VideoripXviD Relizx264The.Score.2001.2100MB.BDRip.x264.mkv
Формат                          : Matroska
Версия формата                  : Version 2
Размер файла                    : 2,05 Гбайт
Продолжительность                : 2 ч. 4 м.
Общий поток                      : 2363 Кбит/сек
Дата кодирования                : UTC 2012-01-21 12:36:20
Программа кодирования            : mkvmerge v4.9.1 ('Ich will') built on Jul 11 2011 23:53:15
Библиотека кодирования          : libebml v1.2.1 + libmatroska v1.1.1

Видео
Идентификатор                    : 1
Формат                          : AVC
Формат/Информация                : Advanced Video Codec
Профиль формата                  : High@L4.1
Параметр CABAC формата          : Да
Параметр ReFrames формата        : 10 кадров
Идентификатор кодека            : V_MPEG4/ISO/AVC
Продолжительность                : 2 ч. 4 м.
Битрейт                          : 1594 Кбит/сек
Ширина                          : 720 пикселей
Высота                          : 304 пикселя
Соотношение сторон              : 2,35:1
Частота кадров                  : 23,976 кадра/сек
Цветовое пространство            : YUV
Субдискретизация насыщенности    : 4:2:0
Битовая глубина                  : 8 бит
Тип развёртки                    : Прогрессивная
Бит/(Пиксели*Кадры)              : 0.304
Размер потока                    : 1,34 Гбайт (66%)
Библиотека кодирования          : x264 core 116 r2074 2641b9e
Настройки программы              : cabac=1 / ref=10 / deblock=1:-3:-3 / analyse=0x3:0x113 / me=umh / subme=7 / psy=1 / psy_rd=1.00:0.00 / mixed_ref=1 / me_range=16 / chroma_me=1 / trellis=1 / 8x8dct=1 / cqm=0 / deadzone=21,11 / fast_pskip=1 / chroma_qp_offset=-2 / threads=6 / sliced_threads=0 / nr=0 / decimate=1 / interlaced=0 / bluray_compat=0 / constrained_intra=0 / bframes=6 / b_pyramid=2 / b_adapt=1 / b_bias=0 / direct=1 / weightb=1 / open_gop=0 / weightp=2 / keyint=250 / keyint_min=23 / scenecut=40 / intra_refresh=0 / rc_lookahead=40 / rc=2pass / mbtree=1 / bitrate=1594 / ratetol=1.0 / qcomp=0.60 / qpmin=0 / qpmax=69 / qpstep=4 / cplxblur=20.0 / qblur=0.5 / ip_ratio=1.40 / aq=1:1.00
Default                          : Да
Forced                          : Нет

Аудио #1
Идентификатор                    : 2
Формат                          : AC-3
Формат/Информация                : Audio Coding 3
Расширение режима                : CM (complete main)
Идентификатор кодека            : A_AC3
Продолжительность                : 2 ч. 4 м.
Вид битрейта                    : Постоянный
Битрейт                          : 384 Кбит/сек
Каналы                          : 6 каналов
Расположение каналов            : Front: L C R, Side: L R, LFE
Частота                          : 48,0 КГц
Битовая глубина                  : 16 бит
Метод сжатия                    : С потерями
Размер потока                    : 341 Мбайт (16%)
Default                          : Да
Forced                          : Нет

Аудио #2
Идентификатор                    : 3
Формат                          : AC-3
Формат/Информация                : Audio Coding 3
Расширение режима                : CM (complete main)
Идентификатор кодека            : A_AC3
Продолжительность                : 2 ч. 4 м.
Вид битрейта                    : Постоянный
Битрейт                          : 384 Кбит/сек
Каналы                          : 6 каналов
Расположение каналов            : Front: L C R, Side: L R, LFE
Частота                          : 48,0 КГц
Битовая глубина                  : 16 бит
Метод сжатия                    : С потерями
Размер потока                    : 341 Мбайт (16%)
Default                          : Нет
Forced                          : Нет






ФАЙЛ
Качество: BDRip
Видео: AVC, 720x304 (2.35:1), 23.976 fps, 1 594 Kbps (0.304 bit/pixel)
Звук: Russian/English: AC-3, 48.0 KHz, 6 ch, 384 Kbps, CBR


Пожалуйста не забывайте нажимать РЕСПЕКТ и СПАСИБО - автору приятно и полезно!
Размер2.05 GB (2,198,082,265 байт)
Скачать Медвежатник , The Score [x264] [2001 | BDRip]

:: ОТЗЫВЫ


button_offline Отзыв от лео11
avatar 410205

фильм видел, как и большинство людей, посмотрю еще раз :w00t: :w00t:

button_offline Отзыв от barinn
avatar 241719

отличный фильм!советую!

button_offline Отзыв от kiram
avatar 504653

фильм сссссссупер
;-) ;-) ;-)

button_offline Отзыв от GurduZ
avatar 702756

актеры пожалуй радуют

РЕГИСТРАЦИЯ.

Смотрите бесплатное порно или эротику

footerLeft
Информация для правообладателей На ёгли вы скачаете порно, бесплатные фильмы, а также новинки кино. Все это бесплатно и без смс.