Cкачать бесплатно фильмы.
Поиск фильмов
Log Pass забыли?
  Бесплатные фильмы
Скачать Медицинское обеспечение - Vannah Sterling
КатегорияCreampies / Зрелые / Груди
Похожие фильмы



Похожие онлайн фильмы
Постер фильма Медицинское обеспечение - Vannah Sterling
Медицинское обеспечение - Vannah Sterling

Обзор



Трахнув на приеме пациентку, доктор производит ей внутреннюю инъекцию


General
Complete name                            : C:UsersUserDownloadsVannah Sterling.mp4
Format                                   : MPEG-4
Format profile                           : Base Media
Codec ID                                 : isom
File size                                : 212 MiB
Duration                                 : 24mn 5s
Overall bit rate mode                    : Variable
Overall bit rate                         : 1 228 Kbps
Encoded date                             : UTC 2014-03-10 11:30:11
Tagged date                              : UTC 2014-03-10 11:30:11

Video
ID                                       : 1
Format                                   : AVC
Format/Info                              : Advanced Video Codec
Format profile                           : Main@L3.1
Format settings, CABAC                   : Yes
Format settings, ReFrames                : 8 frames
Format settings, GOP                     : M=1, N=25
Codec ID                                 : avc1
Codec ID/Info                            : Advanced Video Coding
Duration                                 : 24mn 5s
Bit rate                                 : 1 161 Kbps
Maximum bit rate                         : 2 546 Kbps
Width                                    : 854 pixels
Height                                   : 480 pixels
Display aspect ratio                     : 16:9
Frame rate mode                          : Constant
Frame rate                               : 25.000 fps
Color space                              : YUV
Chroma subsampling                       : 4:2:0
Bit depth                                : 8 bits
Scan type                                : Progressive
Bits/(Pixel*Frame)                       : 0.113
Stream size                              : 200 MiB (95%)
Writing library                          : Zencoder Video Encoding System
Encoded date                             : UTC 2014-03-10 11:24:17
Tagged date                              : UTC 2014-03-10 11:30:12

Audio
ID                                       : 2
Format                                   : AAC
Format/Info                              : Advanced Audio Codec
Format profile                           : LC
Codec ID                                 : 40
Duration                                 : 24mn 5s
Bit rate mode                            : Variable
Bit rate                                 : 64.0 Kbps
Maximum bit rate                         : 74.9 Kbps
Channel(s)                               : 2 channels
Channel positions                        : Front: L R
Sampling rate                            : 44.1 KHz
Compression mode                         : Lossy
Stream size                              : 11.0 MiB (5%)
Encoded date                             : UTC 2014-03-10 11:30:12
Tagged date                              : UTC 2014-03-10 11:30:12


http://i75.fastpic.ru/thumb/2015/1116/17/2a9b1c0d8614747ded4afa8d2fcdc517.jpeg http://i75.fastpic.ru/thumb/2015/1116/d3/e0e65dcc08278d94b13fbd47171a3ad3.jpeg http://i75.fastpic.ru/thumb/2015/1116/e6/2ff909a93fc69d02ae0506be9255a5e6.jpeg http://i75.fastpic.ru/thumb/2015/1116/e5/0311ff2b725170f60bd5230014b67be5.jpeg
Размер211.50 MB (221,776,146 байт)
Скачать Медицинское обеспечение - Vannah Sterling

:: Отзывы



Отзывы отсутствуют.

 :: Отзывов нет
РЕГИСТРАЦИЯ.

Смотрите бесплатное порно или эротику

footerLeft
Информация для правообладателей На ёгли вы скачаете порно, бесплатные фильмы, а также новинки кино. Все это бесплатно и без смс.