Cкачать бесплатно фильмы.
Поиск фильмов
Log Pass забыли?
  Бесплатные фильмы
Скачать Мистер и миссис Смит , Mr. & Mrs. Smith [x264] [2005 | BDRip]
КатегорияБоевик / Комедия / Драма
Похожие фильмы



Похожие онлайн фильмы
Постер фильма Мистер и миссис Смит , Mr. & Mrs. Smith [x264] [2005 | BDRip]
Мистер и миссис Смит , Mr. & Mrs. Smith [x264] [2005 | BDRip]

Трэйлер


wMak6TmwFW8&feature=player_embedded

Обзор



Название: Мистер и миссис Смит
Оригинальное название: Mr. & Mrs. Smith
Год выхода: 2005
Cтрана: США
Режиссер: Даг Лайман
Cценарий: Саймон Кинберг
В ролях:  Брэд Питт, Анджелина Джоли, Винс Вон, Адам Броди, Керри Вашингтон, Кит Дэвид, Крис Вайц, Рэйчел Хантли, Мишель Монахэн . . .
Продолжительность: 01:59:58
Язык: Русский Профессиональный (Полное дублирование) | Лицензия

Примечание: Данный рип не будет воспроизводиться на бытовых плеерах, не поддерживающих кодеки   H.264

О фильме:
«Happy endings are for stories that haven't finished yet.»


Джон и Джейн женаты не так долго, но уже утомлены своим браком. Им кажется, что они знают друг о друге все. Но есть кое-что, что каждый предпочитает держать при себе: оба они — наемные убийцы, которые тайно путешествуют по миру, выполняя опасные миссии. Эти отдельные тайные приключения становятся их общей судьбой в тот момент, когда Джейн получает заказ на Джона, а Джон на Джейн.


http://zamolxismd.org/m/iceimg.com/i/8f/57/2550564ce1.pnghttp://zamolxismd.org/m/iceimg.com/i/b5/c7/f468b6d8b2.png
http://zamolxismd.org/m/iceimg.com/i/d0/82/a96086f2eb.pnghttp://zamolxismd.org/m/iceimg.com/i/a0/4e/76582d7ff7.png
http://zamolxismd.org/m/iceimg.com/i/24/86/8b9fa5cb04.pnghttp://zamolxismd.org/m/iceimg.com/i/05/c5/141e67cea0.png




ФАЙЛ
Качество: BDRip
Видео: AVC, 704x304 (2.35:1), 23.976 fps, 1 179 Kbps (0.230 bit/pixel)
Звук:  AC-3, 48.0 KHz, 6 ch, 448 Kbps, CBR


MediaInfo писал
General
Unique ID                        : 200646593533546396755647439015055926748 (0x96F320D6785D4524B6B6F9404F8F25DC)
Complete name                    : C:UsersIlieRusuDesktopНовая папка (3)Mr&Mrs.Smith.by.DrG.mkv
Format                          : Matroska
File size                        : 1.36 GiB
Duration                        : 1h 59mn
Overall bit rate                : 1 628 Kbps
Encoded date                    : UTC 2011-12-13 02:48:12
Writing application              : mkvmerge v4.9.1 ('Ich will') built on Jul 11 2011 23:53:15
Writing library                  : libebml v1.2.1 + libmatroska v1.1.1

Video
ID                              : 1
Format                          : AVC
Format/Info                      : Advanced Video Codec
Format profile                  : High@L5.1
Format settings, CABAC          : Yes
Format settings, ReFrames        : 16 frames
Codec ID                        : V_MPEG4/ISO/AVC
Duration                        : 1h 59mn
Bit rate                        : 1 179 Kbps
Width                            : 704 pixels
Height                          : 304 pixels
Display aspect ratio            : 2.35:1
Frame rate                      : 23.976 fps
Color space                      : YUV
Chroma subsampling              : 4:2:0
Bit depth                        : 8 bits.
Scan type                        : Progressive
Bits/(Pixel*Frame)              : 0.230
Stream size                      : 985 MiB (70%)
Writing library                  : x264 core 116 r2074 2641b9e
Encoding settings                : cabac=1 / ref=16 / deblock=1:-1:-1 / analyse=0x3:0x133 / me=umh / subme=10 / psy=1 / psy_rd=1.00:0.15 / mixed_ref=1 / me_range=24 / chroma_me=1 / trellis=2 / 8x8dct=1 / cqm=0 / deadzone=21,11 / fast_pskip=1 / chroma_qp_offset=-3 / threads=3 / sliced_threads=0 / nr=0 / decimate=1 / interlaced=0 / bluray_compat=0 / constrained_intra=0 / bframes=8 / b_pyramid=2 / b_adapt=2 / b_bias=0 / direct=3 / weightb=1 / open_gop=0 / weightp=2 / keyint=250 / keyint_min=23 / scenecut=40 / intra_refresh=0 / rc_lookahead=60 / rc=2pass / mbtree=1 / bitrate=1179 / ratetol=1.0 / qcomp=0.60 / qpmin=0 / qpmax=69 / qpstep=4 / cplxblur=20.0 / qblur=0.5 / ip_ratio=1.40 / aq=1:1.00

Audio
ID                              : 2
Format                          : AC-3
Format/Info                      : Audio Coding 3
Mode extension                  : CM (complete main)
Codec ID                        : A_AC3
Duration                        : 1h 59mn
Bit rate mode                    : Constant
Bit rate                        : 448 Kbps
Channel(s)                      : 6 channels
Channel positions                : Front: L C R, Side: L R, LFE
Sampling rate                    : 48.0 KHz
Bit depth                        : 16 bits
Compression mode                : Lossy
Stream size                      : 384 MiB (28%)


Пожалуйста не забывайте нажимать СПАСИБО - автору приятно и полезно!
Размер1.36 GB (1,464,623,042 байт)
Скачать Мистер и миссис Смит , Mr. & Mrs. Smith [x264] [2005 | BDRip]

:: Отзывы



Отзывы отсутствуют.

 :: Отзывов нет
РЕГИСТРАЦИЯ.

Смотрите бесплатное порно или эротику

footerLeft
Информация для правообладателей На ёгли вы скачаете порно, бесплатные фильмы, а также новинки кино. Все это бесплатно и без смс.