Cкачать бесплатно фильмы.
Поиск фильмов
Log Pass забыли?
  Бесплатные фильмы
Скачать Мой первый сексуальный учитель - My.First.Sex.Teacher.-.Kayla.Kleevage
КатегорияЗрелые / Анал
Похожие фильмы



Похожие онлайн фильмы
Постер фильма Мой первый сексуальный учитель - My.First.Sex.Teacher.-.Kayla.Kleevage
Мой первый сексуальный учитель  - My.First.Sex.Teacher.-.Kayla.Kleevage
Фото фильма Мой первый сексуальный учитель - My.First.Sex.Teacher.-.Kayla.Kleevage
Мой первый сексуальный учитель  - My.First.Sex.Teacher.-.Kayla.Kleevage

Обзор



My First Sex Teacher - Kayla Kleevage
Added: March 04, 2010
Chris Johnson wants his reward for graduating from Kayla Kleevage but she just can't give him because the school won't allow it. Chris was a little bummed at first and so she got creative and let him play with her big sweet titties! He rocks that juicy ass like no tomorrow too!



File size                        : 303 MiB
Duration                         : 20mn 6s
Overall bit rate mode            : Constant
Overall bit rate                 : 2 107 Kbps
Maximum Overall bit rate         : 2 116 Kbps
Encoded date                     : UTC 2010-02-26 22:20:01.634

Video
ID                               : 2
Format                           : VC-1
Format profile                   : MP@HL
Codec ID                         : WMV3
Codec ID/Info                    : Windows Media Video 9
Codec ID/Hint                    : WMV3
Description of the codec         : Windows Media Video 9 - Professional
Duration                         : 20mn 5s
Bit rate mode                    : Constant
Bit rate                         : 2 000 Kbps
Width                            : 850 pixels
Height                           : 480 pixels
Display aspect ratio             : 16:9
Frame rate                       : 29.970 fps
Resolution                       : 24 bits
Scan type                        : Progressive
Bits/(Pixel*Frame)               : 0.164
Stream size                      : 287 MiB (95%)
Language                         : English (US)

Audio
ID                               : 1
Format                           : WMA
Format version                   : Version 2
Codec ID                         : 161
Codec ID/Info                    : Windows Media Audio
Description of the codec         : Windows Media Audio 9.2 -  96 kbps, 48 kHz, stereo (A/V) 1-pass CBR
Duration                         : 20mn 6s
Bit rate mode                    : Constant
Bit rate                         : 96.0 Kbps
Channel(s)                       : 2 channels
Sampling rate                    : 48.0 KHz
Resolution                       : 16 bits
Stream size                      : 13.8 MiB (5%)
Language                         : English (US)


Приятного просмотра господа!

Размер303.10 MB (317,820,703 байт)
Скачать Мой первый сексуальный учитель - My.First.Sex.Teacher.-.Kayla.Kleevage

:: ОТЗЫВЫ


button_offline Отзыв от volklar
avatar 728638

Кому нравиться чтоб всего было побольше - это сюда. Тетя что надо!
:w00t:  :w00t:

button_offline Отзыв от baldas
avatar 759421

да уж такая тетя добрая! мальчишке помогла справиться с его проблемой! настоящий педагог или пидагог! это тебе не указкой по лбу- это понимание потребностей учащихся! спасибо нажато :-P :w00t: :-D ;-) ;-) ;-) :weirdo: :weirdo:

РЕГИСТРАЦИЯ.

Смотрите бесплатное порно или эротику

footerLeft
Информация для правообладателей На ёгли вы скачаете порно, бесплатные фильмы, а также новинки кино. Все это бесплатно и без смс.