Cкачать бесплатно фильмы.
Поиск фильмов
Log Pass забыли?
  Бесплатные фильмы
Скачать Музыкальное образование - Summer Brielle
КатегорияГруди
Похожие фильмы



Похожие онлайн фильмы
Постер фильма Музыкальное образование - Summer Brielle
Музыкальное образование - Summer Brielle

Обзор



Студент на пересдаче сказал, что может сыграть на гитаре, но препод с большими сиськами заявила, что поставит ему зачет, если он позволит ей исполнить игру на флейте


General
Complete name                            : C:UsersUserDownloadsSummer Brielle .mp4
Format                                   : MPEG-4
Format profile                           : Base Media
Codec ID                                 : isom
File size                                : 741 MiB
Duration                                 : 33mn 1s
Overall bit rate                         : 3 136 Kbps
Encoded date                             : UTC 2013-08-22 22:49:17
Tagged date                              : UTC 2013-08-22 22:49:17
Writing application                      : Lavf53.32.100

Video
ID                                       : 1
Format                                   : AVC
Format/Info                              : Advanced Video Codec
Format profile                           : High@L3.0
Format settings, CABAC                   : Yes
Format settings, ReFrames                : 4 frames
Codec ID                                 : avc1
Codec ID/Info                            : Advanced Video Coding
Duration                                 : 33mn 1s
Bit rate                                 : 3 000 Kbps
Width                                    : 1 280 pixels
Height                                   : 720 pixels
Display aspect ratio                     : 16:9
Frame rate mode                          : Constant
Frame rate                               : 30.000 fps
Color space                              : YUV
Chroma subsampling                       : 4:2:0
Bit depth                                : 8 bits
Scan type                                : Progressive
Bits/(Pixel*Frame)                       : 0.109
Stream size                              : 708 MiB (96%)
Writing library                          : x264 core 120
Encoding settings                        : cabac=1 / ref=4 / deblock=1:0:0 / analyse=0x3:0x113 / me=umh / subme=7 / psy=0 / mixed_ref=1 / me_range=16 / chroma_me=1 / trellis=1 / 8x8dct=1 / cqm=0 / deadzone=21,11 / fast_pskip=0 / chroma_qp_offset=0 / threads=48 / sliced_threads=0 / nr=0 / decimate=1 / interlaced=0 / bluray_compat=0 / constrained_intra=0 / bframes=16 / b_pyramid=2 / b_adapt=1 / b_bias=0 / direct=3 / weightb=1 / open_gop=0 / weightp=2 / keyint=300 / keyint_min=25 / scenecut=40 / intra_refresh=0 / rc=2pass / mbtree=0 / bitrate=3000 / ratetol=1.0 / qcomp=0.60 / qpmin=10 / qpmax=51 / qpstep=4 / cplxblur=20.0 / qblur=0.5 / ip_ratio=1.40 / pb_ratio=1.30 / aq=1:1.00
Language                                 : English
Encoded date                             : UTC 2013-08-22 22:49:17
Tagged date                              : UTC 2013-08-22 22:49:17

Audio
ID                                       : 2
Format                                   : AAC
Format/Info                              : Advanced Audio Codec
Format profile                           : LC
Codec ID                                 : 40
Duration                                 : 33mn 1s
Bit rate mode                            : Constant
Bit rate                                 : 128 Kbps
Channel(s)                               : 2 channels
Channel positions                        : Front: L R
Sampling rate                            : 44.1 KHz
Compression mode                         : Lossy
Stream size                              : 30.2 MiB (4%)
Language                                 : English
Encoded date                             : UTC 2013-08-22 22:49:17
Tagged date                              : UTC 2013-08-22 22:49:17


http://i73.fastpic.ru/big/2015/1120/f9/b4422a4915862728817cfe65d04151f9.gif http://i75.fastpic.ru/big/2015/1120/42/f2d729feeb4109ac7001f70d6dfa2e42.gif
http://i74.fastpic.ru/big/2015/1120/b9/47f8b04596c16893057d19cb1d4554b9.gif http://i75.fastpic.ru/big/2015/1120/97/f4bdd767ad494df2b86fa28cb19ef097.gif


http://i75.fastpic.ru/big/2015/1120/61/b658185c6bdc8ec98c75f52dbd3f4d61.jpg
Размер740.65 MB (776,627,362 байт)
Скачать Музыкальное образование - Summer Brielle

:: Отзывы



Отзывы отсутствуют.

 :: Отзывов нет
РЕГИСТРАЦИЯ.

Смотрите бесплатное порно или эротику

footerLeft
Информация для правообладателей На ёгли вы скачаете порно, бесплатные фильмы, а также новинки кино. Все это бесплатно и без смс.