Cкачать бесплатно фильмы.
Поиск фильмов
Log Pass забыли?
  Бесплатные фильмы
Скачать На счету уже третий анал - Alena Croft (Alena Croft Big Tit MILF Gets Her Ass Stretched)
КатегорияАнал / Зрелые / Груди
Похожие фильмы



Похожие онлайн фильмы
Постер фильма На счету уже третий анал - Alena Croft (Alena Croft Big Tit MILF Gets Her Ass Stretched)
На счету  уже третий анал - Alena Croft (Alena Croft Big Tit MILF Gets Her Ass Stretched)

Обзор



Красивую шлюху Алену Крофт аналит дегенерат, которому перепало такое счастье.


General
Complete name                            : C:UsersUserDownloadsAlena Croft (Alena Croft Big Tit MILF Gets Her Ass Stretched).mp4
Format                                   : MPEG-4
Format profile                           : Base Media
Codec ID                                 : isom
File size                                : 1.11 GiB
Duration                                 : 38mn 20s
Overall bit rate                         : 4 129 Kbps
Writing application                      : Lavf56.23.106

Video
ID                                       : 1
Format                                   : AVC
Format/Info                              : Advanced Video Codec
Format profile                           : High@L3.1
Format settings, CABAC                   : Yes
Format settings, ReFrames                : 4 frames
Codec ID                                 : avc1
Codec ID/Info                            : Advanced Video Coding
Duration                                 : 38mn 20s
Bit rate                                 : 4 000 Kbps
Width                                    : 1 280 pixels
Height                                   : 720 pixels
Display aspect ratio                     : 16:9
Frame rate mode                          : Constant
Frame rate                               : 29.970 fps
Color space                              : YUV
Chroma subsampling                       : 4:2:0
Bit depth                                : 8 bits
Scan type                                : Progressive
Bits/(Pixel*Frame)                       : 0.145
Stream size                              : 1.07 GiB (97%)
Writing library                          : x264 core 142
Encoding settings                        : cabac=1 / ref=3 / deblock=1:0:0 / analyse=0x3:0x113 / me=hex / subme=7 / psy=1 / psy_rd=1.00:0.00 / mixed_ref=1 / me_range=16 / chroma_me=1 / trellis=1 / 8x8dct=1 / cqm=0 / deadzone=21,11 / fast_pskip=1 / chroma_qp_offset=-2 / threads=12 / lookahead_threads=2 / sliced_threads=0 / nr=0 / decimate=1 / interlaced=0 / bluray_compat=0 / constrained_intra=0 / bframes=3 / b_pyramid=2 / b_adapt=1 / b_bias=0 / direct=1 / weightb=1 / open_gop=0 / weightp=2 / keyint=300 / keyint_min=29 / scenecut=40 / intra_refresh=0 / rc_lookahead=40 / rc=abr / mbtree=1 / bitrate=4000 / ratetol=1.0 / qcomp=0.60 / qpmin=10 / qpmax=51 / qpstep=4 / ip_ratio=1.40 / aq=1:1.00

Audio
ID                                       : 2
Format                                   : AAC
Format/Info                              : Advanced Audio Codec
Format profile                           : LC
Codec ID                                 : 40
Duration                                 : 38mn 20s
Duration_LastFrame                       : -14ms
Bit rate mode                            : Constant
Bit rate                                 : 128 Kbps
Channel(s)                               : 2 channels
Channel positions                        : Front: L R
Sampling rate                            : 48.0 KHz
Compression mode                         : Lossy
Stream size                              : 35.1 MiB (3%)


http://i67.fastpic.ru/big/2015/1119/30/ddcf0433f2a8ec413c5fdefff45a3230.gif http://i67.fastpic.ru/big/2015/1119/29/18267a52ab83e7f97e1034655c140129.gif
http://i66.fastpic.ru/big/2015/1119/33/0d382db66c33cdf2147b2ca65ee4a233.gif http://i76.fastpic.ru/big/2015/1119/85/3ddc359cc355b726f9c9a65c15f52485.gif
http://i74.fastpic.ru/big/2015/1119/99/a2b15a177514a38777a3bd7242d16599.gif http://i76.fastpic.ru/big/2015/1119/4e/b51d9bca46e539cfe2a5ac66cf89524e.gif


http://i76.fastpic.ru/big/2015/1119/e8/59132e7f11cfc4971722dde0551c3ce8.jpg
Размер1.11 GB (1,187,303,391 байт)
Скачать На счету уже третий анал - Alena Croft (Alena Croft Big Tit MILF Gets Her Ass Stretched)

:: ОТЗЫВЫ


button_offline Отзыв от Hl1kojla
avatar 722321

:w00t:Ебит-твою наЛево!  :-D 8-)

Последний раз редактировалось Hl1kojla в 2015-11-25 16:40:23


РЕГИСТРАЦИЯ.

Смотрите бесплатное порно или эротику

footerLeft
Информация для правообладателей На ёгли вы скачаете порно, бесплатные фильмы, а также новинки кино. Все это бесплатно и без смс.