Cкачать бесплатно фильмы.
Поиск фильмов
Log Pass забыли?
  Бесплатные фильмы
Скачать Наполненная негритянской спермой - Ally Style (Gangland Cream Pie 22)
КатегорияCreampies / Жёсткое
Похожие фильмы



Похожие онлайн фильмы
Постер фильма Наполненная негритянской спермой - Ally Style (Gangland Cream Pie 22)
Наполненная негритянской спермой - Ally Style (Gangland Cream Pie 22)

Обзор



Шалаву ебет банда нигеров и спускает ей в пизду

http://thumbnails116.imagebam.com/50650/59942b506498700.jpg http://thumbnails116.imagebam.com/50650/aae170506498701.jpg http://thumbnails116.imagebam.com/50650/f25115506498702.jpg http://thumbnails116.imagebam.com/50650/ce9754506498703.jpg http://thumbnails116.imagebam.com/50650/120127506498704.jpg http://thumbnails115.imagebam.com/50650/2cda77506498705.jpg http://thumbnails116.imagebam.com/50650/4b07fb506498706.jpg http://thumbnails116.imagebam.com/50650/ae0964506498707.jpg

General
Complete name                  : C:UsersUserDownloadsAvsPhelpAlly Style (Gangland Cream Pie 22).mp4
Format                         : MPEG-4
Format profile                 : Sony PSP
Codec ID                       : MSNV
File size                      : 511 MiB
Duration                       : 41mn 09s
Overall bit rate mode          : Variable
Overall bit rate               : 13.3 Mbps
Encoded date                   : UTC 2016-09-23 13:28:01
Tagged date                    : UTC 2016-09-23 13:28:01

Video
ID                             : 1
Format                         : AVC
Format/Info                    : Advanced Video Codec
Format profile                 : Main@L4.0
Format settings, CABAC         : Yes
Format settings, ReFrames      : 2 frames
Codec ID                       : avc1
Codec ID/Info                  : Advanced Video Coding
Duration                       : 5mn 21s
Bit rate mode                  : Variable
Bit rate                       : 13.1 Mbps
Maximum bit rate               : 15.0 Mbps
Width                          : 854 pixels
Height                         : 480 pixels
Display aspect ratio           : 16:9
Frame rate mode                : Constant
Frame rate                     : 25.000 fps
Color space                    : YUV
Chroma subsampling             : 4:2:0
Bit depth                      : 8 bits
Scan type                      : Progressive
Bits/(Pixel*Frame)             : 0.253
Stream size                    : 501 MiB (98%)
Language                       : English
Encoded date                   : UTC 2016-09-23 13:28:01
Tagged date                    : UTC 2016-09-23 13:28:01

Audio
ID                             : 2
Format                         : AAC
Format/Info                    : Advanced Audio Codec
Format profile                 : LC
Codec ID                       : 40
Duration                       : 41mn 09s
Source duration                : 5mn 21s
Bit rate mode                  : Constant
Bit rate                       : 250 Kbps
Nominal bit rate               : 384 Kbps
Channel(s)                     : 2 channels
Channel positions              : Front: L R
Sampling rate                  : 48.0 KHz
Compression mode               : Lossy
Stream size                    : 9.57 MiB (2%)
Source stream size             : 9.57 MiB (2%)
Language                       : English
Encoded date                   : UTC 2016-09-23 13:28:01
Tagged date                    : UTC 2016-09-23 13:28:01
mdhd_Duration                  : 321024

Размер510.83 MB (535,647,344 байт)
Скачать Наполненная негритянской спермой - Ally Style (Gangland Cream Pie 22)

:: ОТЗЫВЫ


button_offline Отзыв от kasoi911
avatar 824560

что за кидалово всего 5 минут видео не о чем где порно

РЕГИСТРАЦИЯ.

Смотрите бесплатное порно или эротику

footerLeft
Информация для правообладателей На ёгли вы скачаете порно, бесплатные фильмы, а также новинки кино. Все это бесплатно и без смс.