Cкачать бесплатно фильмы.
Поиск фильмов
Log Pass забыли?
  Бесплатные фильмы
Скачать Небесные ангелочки в ремиксе - Sky Angel Legend Special Remix
КатегорияАзиатки / Creampies / Молодые
Похожие фильмы



Похожие онлайн фильмы
Постер фильма Небесные ангелочки в ремиксе - Sky Angel Legend Special Remix
Небесные ангелочки в ремиксе - Sky Angel Legend Special Remix
Фото фильма Небесные ангелочки в ремиксе - Sky Angel Legend Special Remix
Небесные ангелочки в ремиксе - Sky Angel Legend Special Remix

Обзор



Перед вами лучшие сцены из серии фильмов  Sky Angel и главное без цензуры ;-)

Video

Format                           : MPEG-4 Visual
Format profile                   : Advanced Simple@L5
Format settings, BVOP            : Yes
Format settings, QPel            : No
Format settings, GMC             : No warppoints
Format settings, Matrix          : Default (H.263)
Codec ID                         : XVID
Codec ID/Hint                    : XviD
Duration                         : 1h 57mn
Bit rate                         : 981 Kbps
Width                            : 640 pixels
Height                           : 480 pixels
Display aspect ratio             : 4:3
Frame rate                       : 29.970 fps
Color space                      : YUV
Chroma subsampling               : 4:2:0
Bit depth                        : 8 bits
Scan type                        : Progressive
Bits/(Pixel*Frame)               : 0.107
Stream size                      : 828 MiB (88%)
Writing library                  : XviD 1.1.2 (UTC 2006-11-01)

Audio

Format                           : MPEG Audio
Format version                   : Version 1
Format profile                   : Layer 3
Codec ID                         : 55
Codec ID/Hint                    : MP3
Duration                         : 1h 57mn
Bit rate mode                    : Constant
Bit rate                         : 128 Kbps
Channel(s)                       : 2 channels
Sampling rate                    : 48.0 KHz
Stream size                      : 108 MiB (11%)
Alignment                        : Split accross interleaves
Interleave, duration             : 33 ms (1.00 video frame)
Interleave, preload duration     : 500 ms
Writing library                  : LAME3.97



http://thumbnails9.imagebam.com/8730/50aac087295759.jpg http://thumbnails30.imagebam.com/8730/cdb26a87295761.jpg http://thumbnails15.imagebam.com/8730/499b6687295765.jpg http://thumbnails31.imagebam.com/8730/448d1687295767.jpg http://thumbnails13.imagebam.com/8730/f2718487295768.jpghttp://thumbnails24.imagebam.com/8730/ca965f87296214.jpg http://thumbnails30.imagebam.com/8730/bfda7b87296220.jpg http://thumbnails25.imagebam.com/8730/21f46287296224.jpg http://thumbnails24.imagebam.com/8730/286c8487296233.jpg http://thumbnails5.imagebam.com/8730/ffb0cb87296237.jpg  
Размер1.88 GB (2,023,285,468 байт)
Скачать Небесные ангелочки в ремиксе - Sky Angel Legend Special Remix
Файлы
[Посмотреть список]
2 файлы

:: ОТЗЫВЫ


button_offline Отзыв от ramm
avatar 297035

отмороженные небритые самураечки,прикольно,спасибо :w00t: :-D :w00t:

РЕГИСТРАЦИЯ.

Смотрите бесплатное порно или эротику

footerLeft
Информация для правообладателей На ёгли вы скачаете порно, бесплатные фильмы, а также новинки кино. Все это бесплатно и без смс.