Cкачать бесплатно фильмы.
Поиск фильмов
Log Pass забыли?
  Бесплатные фильмы
Скачать Негры любят белых шлюх - Jasmine Jae (All Access Jasmine Jae, Scene 4)
КатегорияЖёсткое / Анал / Оргия / Межрассовое / Груди
Похожие фильмы



Похожие онлайн фильмы
Постер фильма Негры любят белых шлюх - Jasmine Jae (All Access Jasmine Jae, Scene 4)
Негры любят белых шлюх - Jasmine Jae (All Access Jasmine Jae, Scene 4)

Обзор



Негры взяли в оборот дырки белой суки

http://thumbnails116.imagebam.com/50545/920a65505444118.jpg http://thumbnails115.imagebam.com/50545/da55a9505444120.jpg http://thumbnails115.imagebam.com/50545/0613e9505444121.jpg http://thumbnails116.imagebam.com/50545/d3a008505444123.jpg http://thumbnails115.imagebam.com/50545/1c711b505444124.jpg http://thumbnails115.imagebam.com/50545/b06e93505444125.jpg http://thumbnails115.imagebam.com/50545/3b6a90505444127.jpg http://thumbnails115.imagebam.com/50545/f3c9d7505444128.jpg

General
Complete name                  : C:UsersUserDownloadsAvsPhelpJasmine Jae (All Access Jasmine Jae, Scene 4).mp4
Format                         : MPEG-4
Format profile                 : Base Media
Codec ID                       : isom
File size                      : 296 MiB
Duration                       : 28mn 23s
Overall bit rate               : 1 456 Kbps
Encoded date                   : UTC 2016-09-13 14:41:29
Tagged date                    : UTC 2016-09-13 14:41:29

Video
ID                             : 1
Format                         : AVC
Format/Info                    : Advanced Video Codec
Format profile                 : Main@L3.1
Format settings, CABAC         : Yes
Format settings, ReFrames      : 5 frames
Codec ID                       : avc1
Codec ID/Info                  : Advanced Video Coding
Duration                       : 28mn 23s
Bit rate                       : 1 407 Kbps
Width                          : 854 pixels
Height                         : 480 pixels
Display aspect ratio           : 16:9
Frame rate mode                : Constant
Frame rate                     : 29.970 fps
Color space                    : YUV
Chroma subsampling             : 4:2:0
Bit depth                      : 8 bits
Scan type                      : Progressive
Bits/(Pixel*Frame)             : 0.115
Stream size                    : 286 MiB (97%)
Tagged date                    : UTC 2016-09-13 14:41:41

Audio
ID                             : 2
Format                         : AAC
Format/Info                    : Advanced Audio Codec
Format profile                 : LC
Codec ID                       : 40
Duration                       : 28mn 23s
Bit rate mode                  : Constant
Bit rate                       : 44.0 Kbps
Channel(s)                     : 2 channels
Channel positions              : Front: L R
Sampling rate                  : 48.0 KHz
Compression mode               : Lossy
Stream size                    : 8.94 MiB (3%)
Tagged date                    : UTC 2016-09-13 14:41:41

Размер295.69 MB (310,050,120 байт)
Скачать Негры любят белых шлюх - Jasmine Jae (All Access Jasmine Jae, Scene 4)

:: ОТЗЫВЫ


button_offline Отзыв от av359
avatar 636035

:w00t: :w00t: :w00t:

РЕГИСТРАЦИЯ.

Смотрите бесплатное порно или эротику

footerLeft
Информация для правообладателей На ёгли вы скачаете порно, бесплатные фильмы, а также новинки кино. Все это бесплатно и без смс.