Cкачать бесплатно фильмы.
Поиск фильмов
Log Pass забыли?
  Бесплатные фильмы
Скачать Неожиданный фарт - Ava Addams & Brandi Love & Julia Ann
КатегорияОргия / Зрелые / Груди
Похожие фильмы



Похожие онлайн фильмы
Постер фильма Неожиданный фарт - Ava Addams & Brandi Love & Julia Ann
Неожиданный фарт - Ava Addams & Brandi Love & Julia Ann

Обзор



Три ненасытные шлюхи оттрахали парня


General
Complete name                            : C:UsersUserDownloadsAva Addams & Brandi Love & Julia Ann.mp4
Format                                   : MPEG-4
Format profile                           : Base Media
Codec ID                                 : isom
File size                                : 359 MiB
Duration                                 : 32mn 47s
Overall bit rate mode                    : Variable
Overall bit rate                         : 1 531 Kbps
Encoded date                             : UTC 2013-08-23 20:08:12
Tagged date                              : UTC 2013-08-23 20:08:12
Writing application                      : Lavf53.32.100

Video
ID                                       : 1
Format                                   : AVC
Format/Info                              : Advanced Video Codec
Format profile                           : High@L3.0
Format settings, CABAC                   : Yes
Format settings, ReFrames                : 4 frames
Codec ID                                 : avc1
Codec ID/Info                            : Advanced Video Coding
Duration                                 : 32mn 47s
Bit rate                                 : 1 400 Kbps
Width                                    : 854 pixels
Height                                   : 480 pixels
Display aspect ratio                     : 16:9
Frame rate mode                          : Constant
Frame rate                               : 30.000 fps
Color space                              : YUV
Chroma subsampling                       : 4:2:0
Bit depth                                : 8 bits
Scan type                                : Progressive
Bits/(Pixel*Frame)                       : 0.114
Stream size                              : 328 MiB (91%)
Writing library                          : x264 core 120
Encoding settings                        : cabac=1 / ref=4 / deblock=1:0:0 / analyse=0x3:0x113 / me=umh / subme=7 / psy=0 / mixed_ref=1 / me_range=16 / chroma_me=1 / trellis=1 / 8x8dct=1 / cqm=0 / deadzone=21,11 / fast_pskip=0 / chroma_qp_offset=0 / threads=48 / sliced_threads=0 / nr=0 / decimate=1 / interlaced=0 / bluray_compat=0 / constrained_intra=0 / bframes=16 / b_pyramid=2 / b_adapt=1 / b_bias=0 / direct=3 / weightb=1 / open_gop=0 / weightp=2 / keyint=300 / keyint_min=25 / scenecut=40 / intra_refresh=0 / rc=2pass / mbtree=0 / bitrate=1400 / ratetol=1.0 / qcomp=0.60 / qpmin=10 / qpmax=51 / qpstep=4 / cplxblur=20.0 / qblur=0.5 / ip_ratio=1.40 / pb_ratio=1.30 / aq=1:1.00
Language                                 : English
Encoded date                             : UTC 2013-08-23 20:08:12
Tagged date                              : UTC 2013-08-23 20:08:12

Audio
ID                                       : 2
Format                                   : AAC
Format/Info                              : Advanced Audio Codec
Format profile                           : LC
Codec ID                                 : 40
Duration                                 : 32mn 47s
Bit rate mode                            : Variable
Bit rate                                 : 123 Kbps
Maximum bit rate                         : 128 Kbps
Channel(s)                               : 2 channels
Channel positions                        : Front: L R
Sampling rate                            : 44.1 KHz
Compression mode                         : Lossy
Stream size                              : 28.9 MiB (8%)
Language                                 : English
Encoded date                             : UTC 2013-08-23 20:08:12
Tagged date                              : UTC 2013-08-23 20:08:12


http://i74.fastpic.ru/big/2015/1122/f9/ebbdfbbbea2b74756258e7496189adf9.gif http://i74.fastpic.ru/big/2015/1122/05/47aa7c2afd512f413b6d004b1b43ee05.gif
http://i76.fastpic.ru/big/2015/1122/38/97d6d6beacf0ec7d55d61c981b3d6f38.gif http://i65.fastpic.ru/big/2015/1122/6a/e34c4c43ab856c793bc45550a183d16a.gif


http://i73.fastpic.ru/big/2015/1122/6a/52215273bc4cce0b34a9733a282ce06a.jpg
Размер359.12 MB (376,562,393 байт)
Скачать Неожиданный фарт - Ava Addams & Brandi Love & Julia Ann

:: ОТЗЫВЫ


button_offline Отзыв от Sergoganet
avatar 456681

:-) :-) :-) :-) :-) :-) :-) :-) :-) :-)

РЕГИСТРАЦИЯ.

Смотрите бесплатное порно или эротику

footerLeft
Информация для правообладателей На ёгли вы скачаете порно, бесплатные фильмы, а также новинки кино. Все это бесплатно и без смс.