Cкачать бесплатно фильмы.
Поиск фильмов
Log Pass забыли?
  Бесплатные фильмы
Скачать Нет денег - дрочи - Elicia Solis (Tight Essex Pussy Takes Black Cock)
КатегорияГруди / Межрассовое
Похожие фильмы



Похожие онлайн фильмы
Постер фильма Нет денег - дрочи - Elicia Solis (Tight Essex Pussy Takes Black Cock)
Нет денег - дрочи - Elicia Solis (Tight Essex Pussy Takes Black Cock)

Обзор



Таксистка заствила дрочить хуй негра, который забыл взять деньги

http://thumbnails115.imagebam.com/50610/f6ea8f506094421.jpg http://thumbnails115.imagebam.com/50610/2d035e506094423.jpg http://thumbnails115.imagebam.com/50610/793392506094424.jpg http://thumbnails116.imagebam.com/50610/7f2416506094425.jpg

General
Complete name                  : C:UsersUserDownloadsAvsPhelpElicia Solis (Tight Essex Pussy Takes Black Cock).mp4
Format                         : MPEG-4
Format profile                 : Sony PSP
Codec ID                       : MSNV
File size                      : 290 MiB
Duration                       : 6mn 42s
Overall bit rate mode          : Variable
Overall bit rate               : 6 051 Kbps
Encoded date                   : UTC 2016-08-28 09:46:32
Tagged date                    : UTC 2016-08-28 09:46:32

Video
ID                             : 1
Format                         : AVC
Format/Info                    : Advanced Video Codec
Format profile                 : Main@L3.0
Format settings, CABAC         : Yes
Format settings, ReFrames      : 2 frames
Codec ID                       : avc1
Codec ID/Info                  : Advanced Video Coding
Duration                       : 6mn 42s
Bit rate mode                  : Variable
Bit rate                       : 5 919 Kbps
Maximum bit rate               : 8 000 Kbps
Width                          : 640 pixels
Height                         : 480 pixels
Display aspect ratio           : 16:9
Frame rate mode                : Constant
Frame rate                     : 25.000 fps
Color space                    : YUV
Chroma subsampling             : 4:2:0
Bit depth                      : 8 bits
Scan type                      : Progressive
Bits/(Pixel*Frame)             : 0.771
Stream size                    : 284 MiB (98%)
Language                       : English
Encoded date                   : UTC 2016-08-28 09:46:32
Tagged date                    : UTC 2016-08-28 09:46:32

Audio
ID                             : 2
Format                         : AAC
Format/Info                    : Advanced Audio Codec
Format profile                 : LC
Codec ID                       : 40
Duration                       : 6mn 42s
Source duration                : 6mn 42s
Bit rate mode                  : Constant
Bit rate                       : 128 Kbps
Channel(s)                     : 2 channels
Channel positions              : Front: L R
Sampling rate                  : 48.0 KHz
Compression mode               : Lossy
Stream size                    : 6.14 MiB (2%)
Source stream size             : 6.14 MiB (2%)
Language                       : English
Encoded date                   : UTC 2016-08-28 09:46:32
Tagged date                    : UTC 2016-08-28 09:46:32
mdhd_Duration                  : 402389
Размер290.28 MB (304,376,992 байт)
Скачать Нет денег - дрочи - Elicia Solis (Tight Essex Pussy Takes Black Cock)

:: ОТЗЫВЫ


button_offline Отзыв от baton82
avatar 403503

Кидалово, ни какого порно один дрочащий негр :shit: :shit: :shit: :shit: :shit: :shit: :shit: :shit: :shit: :shit: :shit: :shit: :shit: :shit: :shit:

button_offline Отзыв от vanciu13
avatar 275469

:shit: :shit: тупость а не видео

РЕГИСТРАЦИЯ.

Смотрите бесплатное порно или эротику

footerLeft
Информация для правообладателей На ёгли вы скачаете порно, бесплатные фильмы, а также новинки кино. Все это бесплатно и без смс.