Cкачать бесплатно фильмы.
Поиск фильмов
Log Pass забыли?
  Бесплатные фильмы
Скачать Обратная реакция - Holly Halston (Jailhouse Fuck)
КатегорияЗрелые / Груди
Похожие фильмы



Похожие онлайн фильмы
Постер фильма Обратная реакция - Holly Halston (Jailhouse Fuck)
Обратная реакция - Holly Halston (Jailhouse Fuck)

Обзор



Серийного маньяка приходит лечить психолог, но получается так, что сама становится заложником своей похоти, видя его член


General
Complete name                            : C:Holly Halston (Jailhouse Fuck).mp4
Format                                   : MPEG-4
Format profile                           : Base Media / Version 2
Codec ID                                 : mp42
File size                                : 3.64 GiB
Duration                                 : 4h 29mn
Overall bit rate mode                    : Variable
Overall bit rate                         : 1 931 Kbps
Encoded date                             : UTC 2015-10-26 03:03:46
Tagged date                              : UTC 2015-10-26 03:03:46
gsst                                     : 0
gstd                                     : 16188023
gssd                                     : BBC2B4346
gshh                                     : r3---sn-ug5onuxaxjvh-3bqe.googlevideo.com

Video
ID                                       : 1
Format                                   : AVC
Format/Info                              : Advanced Video Codec
Format profile                           : High@L3.1
Format settings, CABAC                   : Yes
Format settings, ReFrames                : 1 frame
Codec ID                                 : avc1
Codec ID/Info                            : Advanced Video Coding
Duration                                 : 4h 29mn
Bit rate                                 : 1 736 Kbps
Maximum bit rate                         : 5 246 Kbps
Width                                    : 1 280 pixels
Height                                   : 720 pixels
Display aspect ratio                     : 16:9
Frame rate mode                          : Constant
Frame rate                               : 30.000 fps
Color space                              : YUV
Chroma subsampling                       : 4:2:0
Bit depth                                : 8 bits
Scan type                                : Progressive
Bits/(Pixel*Frame)                       : 0.063
Stream size                              : 3.27 GiB (90%)
Tagged date                              : UTC 2015-10-26 03:08:47

Audio
ID                                       : 2
Format                                   : AAC
Format/Info                              : Advanced Audio Codec
Format profile                           : LC
Codec ID                                 : 40
Duration                                 : 4h 29mn
Bit rate mode                            : Variable
Bit rate                                 : 192 Kbps
Maximum bit rate                         : 202 Kbps
Channel(s)                               : 2 channels
Channel positions                        : Front: L R
Sampling rate                            : 44.1 KHz
Compression mode                         : Lossy
Stream size                              : 371 MiB (10%)
Title                                    : IsoMedia File Produced by Google, 5-11-2011
Language                                 : English
Encoded date                             : UTC 2015-10-26 03:06:43
Tagged date                              : UTC 2015-10-26 03:08:47


http://i67.fastpic.ru/thumb/2015/1104/3c/78e28e06b5245f23904144a14ffa5c3c.jpeg http://i67.fastpic.ru/thumb/2015/1104/1c/15735a99480baf456662895a95248b1c.jpeg http://i67.fastpic.ru/thumb/2015/1104/96/3a214af12efc7adec481701487132396.jpeg http://i67.fastpic.ru/thumb/2015/1104/c6/5d2a9022509402542190ce9978f111c6.jpeg
Размер3.64 GB (3,907,001,383 байт)
Скачать Обратная реакция - Holly Halston (Jailhouse Fuck)

:: ОТЗЫВЫ


button_offline Отзыв от snowbolls
avatar 612623

аахахахахахахаха :weirdo:

button_offline Отзыв от MILF_Fucker
avatar 868787

Хуйня какая то на видеозаписи. Не качать :shit: :shit: :shit: :!: :!: :!:

Последний раз редактировалось MILF_Fucker в 2015-11-06 21:59:07


РЕГИСТРАЦИЯ.

Смотрите бесплатное порно или эротику

footerLeft
Информация для правообладателей На ёгли вы скачаете порно, бесплатные фильмы, а также новинки кино. Все это бесплатно и без смс.