Cкачать бесплатно фильмы.
Поиск фильмов
Log Pass забыли?
  Бесплатные фильмы
Скачать Обручальное кольцо [Episode 101] [2009 | TVRip]
КатегорияСериалы
Похожие фильмы



Похожие онлайн фильмы
Постер фильма Обручальное кольцо [Episode 101] [2009 | TVRip]
Обручальное кольцо [Episode 101]  [2009 | TVRip]

Обзор



Оригинальное название: Обручальное кольцо [Episode 101]  
Год выхода: 2009
Режиссер: Дмитрий Гольдман
В ролях: Товстоногов Егор, Меретуков Казбек, Конышев Алексей, Баранов Евгений, Магазинников Борис, Рабей Борис
Продолжительность: 43mn 51s
Язык: Русский - закадровый перевод

О фильме:

Описание:
Сказка о Золушке на современный манер от *динозавров* сериального жанра, известных продюсеров Эжена Щедрина и Юрия Каменецкого стартует на телеканале *Интер* 3 ноября в 20:30. Многосерийная теленовелла *Обручальное кольцо* расскажет о непростых жизненных перипетиях молодой провинциалки в Москве. Главную роль в картине сыграла полюбившаяся всем *Ундина* – Юлия Пожидаева. А ее родителей: мать и отчима – звезды советского кино Вера Глаголева и Михаил Ефремов. Кроме этого в сериале задействованы Александр Волков, Алина Сандрацкая, Евгения Чиркова и другие не менее известные актеры.
В поезде, идущем в Москву, волею судьбы оказываются три очень разных человека, они и станут главными героями этой многосерийной истории.


















General
Complete name                    : C:Tipa EVideoFilmeObrRing200OBrRing_101_TVRip_RICARDO.avi
Format                           : AVI
Format/Info                      : Audio Video Interleave
File size                        : 421 MiB
Duration                         : 43mn 51s
Overall bit rate                 : 1 341 Kbps
Writing application              : Lavf50.6.0
Writing library                  : VirtualDub-MPEG2 build 24600/release

Video
Format                           : xvid
Codec ID                         : xvid
Duration                         : 43mn 51s
Bit rate                         : 1 204 Kbps
Width                            : 720 pixels
Height                           : 576 pixels
Display aspect ratio             : 5:4
Frame rate                       : 25.000 fps
Standard                         : PAL
Resolution                       : 24 bits
Bits/(Pixel*Frame)               : 0.116
Stream size                      : 378 MiB (90%)

Audio
ID                               : 1
Format                           : MPEG Audio
Format version                   : Version 2
Format profile                   : Layer 3
Codec ID                         : 55
Codec ID/Hint                    : MP3
Duration                         : 43mn 51s
Bit rate mode                    : Constant
Bit rate                         : 128 Kbps
Channel(s)                       : 2 channels
Sampling rate                    : 24.0 KHz
Resolution                       : 16 bits
Stream size                      : 40.2 MiB (10%)
Alignment                        : Split accross interleaves
Interleave, duration             : 40 ms (1.00 video frame)
Interleave, preload duration     : 500 ms
Writing library                  : LAME3.98 (alpha)


Screens:





Click to enlarge




ФАЙЛ
Качество: TVRip
Видео: 720x576 25.00fps 1202Kbps
Звук: MPEG Audio Layer 3 24000Hz stereo 128Kbps
Размер420.75 MB (441,189,716 байт)
Скачать Обручальное кольцо [Episode 101] [2009 | TVRip]

:: ОТЗЫВЫ


button_offline Отзыв от dec99
avatar 243388

СПС НАЖАТ :-D :-D :-D

button_offline Отзыв от fire1985
avatar 1010

непонимаю смысла выкладывать одну серию из сериала.
эта 101 серия крайне странно смотрится - одиноко как в чистом поле.
:-/ :-O 8-)

button_offline Отзыв от Tony Montana
avatar 348543

Я вот тоже немного не понял...может она просто последняя???? Скажите автор ? :-P :-P

button_offline Отзыв от Bumer063
avatar 723951

Спасибо!!!Нормальный фильм.

РЕГИСТРАЦИЯ.

Смотрите бесплатное порно или эротику

footerLeft
Информация для правообладателей На ёгли вы скачаете порно, бесплатные фильмы, а также новинки кино. Все это бесплатно и без смс.