Cкачать бесплатно фильмы.
Поиск фильмов
Log Pass забыли?
  Бесплатные фильмы
Скачать Обычная потрахушка - Puma Swede
КатегорияЗрелые / Классика / Груди
Похожие фильмы



Похожие онлайн фильмы
Постер фильма Обычная потрахушка - Puma Swede
Обычная потрахушка - Puma Swede

Обзор



Сисястую блонду, расстроенную проблемами повседневности,  утешит через секс парнишка


General
Complete name                            : C:UsersUserDownloadsPuma Swede.mp4
Format                                   : MPEG-4
Format profile                           : Base Media
Codec ID                                 : isom
File size                                : 426 MiB
Duration                                 : 31mn 13s
Overall bit rate mode                    : Variable
Overall bit rate                         : 1 908 Kbps
Writing application                      : Lavf54.59.106

Video
ID                                       : 1
Format                                   : AVC
Format/Info                              : Advanced Video Codec
Format profile                           : High@L3.1
Format settings, CABAC                   : Yes
Format settings, ReFrames                : 4 frames
Codec ID                                 : avc1
Codec ID/Info                            : Advanced Video Coding
Duration                                 : 31mn 13s
Bit rate                                 : 1 800 Kbps
Width                                    : 1 280 pixels
Height                                   : 720 pixels
Display aspect ratio                     : 16:9
Frame rate mode                          : Constant
Frame rate                               : 25.000 fps
Color space                              : YUV
Chroma subsampling                       : 4:2:0
Bit depth                                : 8 bits
Scan type                                : Progressive
Bits/(Pixel*Frame)                       : 0.078
Stream size                              : 401 MiB (94%)
Writing library                          : x264 core 129
Encoding settings                        : cabac=1 / ref=3 / deblock=1:0:0 / analyse=0x3:0x113 / me=hex / subme=7 / psy=1 / psy_rd=1.00:0.00 / mixed_ref=1 / me_range=16 / chroma_me=1 / trellis=1 / 8x8dct=1 / cqm=0 / deadzone=21,11 / fast_pskip=1 / chroma_qp_offset=-2 / threads=24 / lookahead_threads=4 / sliced_threads=0 / nr=0 / decimate=1 / interlaced=0 / bluray_compat=0 / constrained_intra=0 / bframes=3 / b_pyramid=2 / b_adapt=1 / b_bias=0 / direct=1 / weightb=1 / open_gop=0 / weightp=2 / keyint=250 / keyint_min=25 / scenecut=40 / intra_refresh=0 / rc_lookahead=40 / rc=abr / mbtree=1 / bitrate=1800 / ratetol=1.0 / qcomp=0.60 / qpmin=0 / qpmax=69 / qpstep=4 / ip_ratio=1.40 / aq=1:1.00
Language                                 : English

Audio
ID                                       : 2
Format                                   : AAC
Format/Info                              : Advanced Audio Codec
Format profile                           : LC
Codec ID                                 : 40
Duration                                 : 31mn 13s
Bit rate mode                            : Variable
Bit rate                                 : 108 Kbps
Maximum bit rate                         : 128 Kbps
Channel(s)                               : 2 channels
Channel positions                        : Front: L R
Sampling rate                            : 44.1 KHz
Compression mode                         : Lossy
Stream size                              : 24.1 MiB (6%)
Language                                 : English


http://i76.fastpic.ru/big/2015/1120/8d/29aa799d73764d8dd651351477ff508d.gif http://i76.fastpic.ru/big/2015/1120/6e/c86494159db45d712fe79f55277b366e.gif
http://i73.fastpic.ru/big/2015/1120/49/38575980d77cfaae107a89182a72ca49.gif http://i73.fastpic.ru/big/2015/1120/c2/03559e0d678c6334323095066a4b00c2.gif


http://i76.fastpic.ru/big/2015/1120/1e/94c84daf3d8c412d5096aab30a5c731e.jpg
Размер426.17 MB (446,876,387 байт)
Скачать Обычная потрахушка - Puma Swede

:: Отзывы



Отзывы отсутствуют.

 :: Отзывов нет
РЕГИСТРАЦИЯ.

Смотрите бесплатное порно или эротику

footerLeft
Информация для правообладателей На ёгли вы скачаете порно, бесплатные фильмы, а также новинки кино. Все это бесплатно и без смс.