Cкачать бесплатно фильмы.
Поиск фильмов
Log Pass забыли?
  Бесплатные фильмы
Скачать Опасный эксперимент - Jayden Jaymes (Gangbanged 2)
КатегорияОргия / Анал / Груди
Похожие фильмы



Похожие онлайн фильмы
Постер фильма Опасный эксперимент - Jayden Jaymes (Gangbanged 2)
Опасный эксперимент - Jayden Jaymes (Gangbanged 2)

Обзор



Красивая шалава решила попробовать выдержат ли ее отверстия семь членов одновременно


General
Complete name                            : D:Jayden Jaymes (Gangbanged 2).avi
Format                                   : AVI
Format/Info                              : Audio Video Interleave
File size                                : 516 MiB
Duration                                 : 48mn 25s
Overall bit rate mode                    : Variable
Overall bit rate                         : 1 488 Kbps
Writing application                      : VirtualDubMod 1.5.10.1 (build 2366/release)
Writing library                          : VirtualDubMod build 2366/release

Video
ID                                       : 0
Format                                   : MPEG-4 Visual
Format profile                           : Advanced Simple@L5
Format settings, BVOP                    : 2
Format settings, QPel                    : No
Format settings, GMC                     : No warppoints
Format settings, Matrix                  : Default (MPEG)
Codec ID                                 : XVID
Codec ID/Hint                            : XviD
Duration                                 : 48mn 25s
Bit rate                                 : 1 342 Kbps
Width                                    : 640 pixels
Height                                   : 352 pixels
Display aspect ratio                     : 16:9
Frame rate                               : 23.976 fps
Color space                              : YUV
Chroma subsampling                       : 4:2:0
Bit depth                                : 8 bits
Scan type                                : Progressive
Compression mode                         : Lossy
Bits/(Pixel*Frame)                       : 0.248
Stream size                              : 465 MiB (90%)
Writing library                          : XviD 1.2.1 (UTC 2008-12-04)

Audio
ID                                       : 1
Format                                   : MPEG Audio
Format version                           : Version 1
Format profile                           : Layer 3
Mode                                     : Joint stereo
Mode extension                           : MS Stereo
Codec ID                                 : 55
Codec ID/Hint                            : MP3
Duration                                 : 48mn 25s
Bit rate mode                            : Variable
Bit rate                                 : 132 Kbps
Channel(s)                               : 2 channels
Sampling rate                            : 48.0 KHz
Compression mode                         : Lossy
Stream size                              : 46.3 MiB (9%)
Alignment                                : Aligned on interleaves
Interleave, duration                     : 24 ms (0.58 video frame)
Interleave, preload duration             : 470 ms


http://i65.fastpic.ru/big/2015/1126/b4/2f3cda099238c5d6de8e3861122c3ab4.gif http://i76.fastpic.ru/big/2015/1126/f9/596fa7502a20bdc771e3950049f904f9.gif
http://i74.fastpic.ru/big/2015/1126/96/9273ee83c8e23a666281528d8a9ccb96.gif http://i75.fastpic.ru/big/2015/1126/58/5041ca9bca40b3851ca68ceb8a45c358.gif
http://i66.fastpic.ru/big/2015/1126/bd/d044b4c23786f62b31cb52cda258d9bd.gif http://i67.fastpic.ru/big/2015/1126/55/2923af913332ed56e230e1f43540b955.gif
http://i67.fastpic.ru/big/2015/1126/da/f9e1c041318da2d33672361bd2eb85da.gif http://i76.fastpic.ru/big/2015/1126/c8/919038f666b564cf3fd2d9d3127ca2c8.gif


http://i76.fastpic.ru/big/2015/1126/86/a49b6155648ef2d5c7a97ffcff402f86.jpg
Размер515.51 MB (540,551,168 байт)
Скачать Опасный эксперимент - Jayden Jaymes (Gangbanged 2)

:: ОТЗЫВЫ


button_offline Отзыв от Hl1kojla
avatar 722321

ну лицо у неё - какбудто её убивают :-D 8-)

РЕГИСТРАЦИЯ.

Смотрите бесплатное порно или эротику

footerLeft
Информация для правообладателей На ёгли вы скачаете порно, бесплатные фильмы, а также новинки кино. Все это бесплатно и без смс.