Cкачать бесплатно фильмы.
Поиск фильмов
Log Pass забыли?
  Бесплатные фильмы
Скачать От примерки к ебле - Shayla Laveaux (The Cock Makes The Suit)
КатегорияЗрелые / Груди
Похожие фильмы



Похожие онлайн фильмы
Постер фильма От примерки к ебле - Shayla Laveaux (The Cock Makes The Suit)
От примерки к ебле - Shayla Laveaux (The Cock Makes The Suit)

Обзор



Определение размеров на пошив пиджака окончилось трахом со зрелой проституткой


General
Complete name                            : C:UsersUserDownloadsShayla Laveaux (The Cock Makes The Suit).mp4
Format                                   : MPEG-4
Format profile                           : Base Media
Codec ID                                 : isom
File size                                : 276 MiB
Duration                                 : 37mn 5s
Overall bit rate mode                    : Variable
Overall bit rate                         : 1 041 Kbps
Writing application                      : Lavf56.25.101

Video
ID                                       : 1
Format                                   : AVC
Format/Info                              : Advanced Video Codec
Format profile                           : Baseline@L3.0
Format settings, CABAC                   : No
Format settings, ReFrames                : 3 frames
Format settings, GOP                     : M=1, N=25
Codec ID                                 : avc1
Codec ID/Info                            : Advanced Video Coding
Duration                                 : 37mn 5s
Bit rate                                 : 880 Kbps
Width                                    : 854 pixels
Height                                   : 480 pixels
Display aspect ratio                     : 16:9
Frame rate mode                          : Constant
Frame rate                               : 25.000 fps
Color space                              : YUV
Chroma subsampling                       : 4:2:0
Bit depth                                : 8 bits
Scan type                                : Progressive
Bits/(Pixel*Frame)                       : 0.086
Stream size                              : 234 MiB (85%)
Writing library                          : x264 core 142
Encoding settings                        : cabac=0 / ref=3 / deblock=1:0:0 / analyse=0x1:0x111 / me=hex / subme=7 / psy=1 / psy_rd=1.00:0.00 / mixed_ref=1 / me_range=16 / chroma_me=1 / trellis=1 / 8x8dct=0 / cqm=0 / deadzone=21,11 / fast_pskip=1 / chroma_qp_offset=-2 / threads=4 / lookahead_threads=1 / sliced_threads=0 / nr=0 / decimate=1 / interlaced=0 / bluray_compat=0 / constrained_intra=0 / bframes=0 / weightp=0 / keyint=25 / keyint_min=2 / scenecut=40 / intra_refresh=0 / rc_lookahead=25 / rc=abr / mbtree=1 / bitrate=880 / ratetol=1.0 / qcomp=0.60 / qpmin=0 / qpmax=69 / qpstep=4 / ip_ratio=1.40 / aq=1:1.00

Audio
ID                                       : 2
Format                                   : AAC
Format/Info                              : Advanced Audio Codec
Format profile                           : LC
Codec ID                                 : 40
Duration                                 : 37mn 5s
Bit rate mode                            : Variable
Bit rate                                 : 152 Kbps
Maximum bit rate                         : 160 Kbps
Channel(s)                               : 2 channels
Channel positions                        : Front: L R
Sampling rate                            : 44.1 KHz
Compression mode                         : Lossy
Stream size                              : 40.3 MiB (15%)


http://i65.fastpic.ru/thumb/2015/1104/7c/4e9b55ee26bddbb829efac586586c07c.jpeg http://i65.fastpic.ru/thumb/2015/1104/bb/38cfd8ab28729774c0bc05b54e6e7ebb.jpeg http://i65.fastpic.ru/thumb/2015/1104/e4/d791d337f8da74e68023c4e00b0408e4.jpeg http://i65.fastpic.ru/thumb/2015/1104/46/ff4260e47e9d57935e54b98e33f88e46.jpeg
Размер276.13 MB (289,544,339 байт)
Скачать От примерки к ебле - Shayla Laveaux (The Cock Makes The Suit)

:: Отзывы



Отзывы отсутствуют.

 :: Отзывов нет
РЕГИСТРАЦИЯ.

Смотрите бесплатное порно или эротику

footerLeft
Информация для правообладателей На ёгли вы скачаете порно, бесплатные фильмы, а также новинки кино. Все это бесплатно и без смс.