Cкачать бесплатно фильмы.
Поиск фильмов
Log Pass забыли?
  Бесплатные фильмы
Скачать Отодрали пышку - Laura Orsolya (Destination Laura)
КатегорияОргия / Зрелые / Груди
Похожие фильмы



Похожие онлайн фильмы
Постер фильма Отодрали пышку - Laura Orsolya (Destination Laura)
Отодрали пышку - Laura Orsolya (Destination Laura)

Обзор



Парни как в лотерею выиграли - перепало им вдвоем отъебать шлюху, которая по комплекции похожа на грузчика


General
Complete name                            : C:UsersUserDownloadsLaura Orsolya (Destination Laura).mp4
Format                                   : MPEG-4
Format profile                           : Base Media / Version 2
Codec ID                                 : mp42
File size                                : 908 MiB
Duration                                 : 27mn 3s
Overall bit rate mode                    : Variable
Overall bit rate                         : 4 690 Kbps
Encoded date                             : UTC 2014-10-14 21:23:25
Tagged date                              : UTC 2014-10-14 21:23:25
©TIM                                     : 00:00:00:00
©TSC                                     : 30000
©TSZ                                     : 1001

Video
ID                                       : 1
Format                                   : AVC
Format/Info                              : Advanced Video Codec
Format profile                           : Main@L3.1
Format settings, CABAC                   : Yes
Format settings, ReFrames                : 3 frames
Format settings, GOP                     : M=4, N=29
Codec ID                                 : avc1
Codec ID/Info                            : Advanced Video Coding
Duration                                 : 27mn 3s
Bit rate mode                            : Variable
Bit rate                                 : 4 500 Kbps
Width                                    : 950 pixels
Height                                   : 540 pixels
Display aspect ratio                     : 16:9
Frame rate mode                          : Constant
Frame rate                               : 29.970 fps
Standard                                 : NTSC
Color space                              : YUV
Chroma subsampling                       : 4:2:0
Bit depth                                : 8 bits
Scan type                                : Progressive
Bits/(Pixel*Frame)                       : 0.293
Stream size                              : 870 MiB (96%)
Language                                 : English
Encoded date                             : UTC 2014-10-14 21:23:25
Tagged date                              : UTC 2014-10-14 21:23:25

Audio
ID                                       : 2
Format                                   : AAC
Format/Info                              : Advanced Audio Codec
Format profile                           : LC
Codec ID                                 : 40
Duration                                 : 27mn 3s
Source duration                          : 27mn 3s
Bit rate mode                            : Variable
Bit rate                                 : 192 Kbps
Maximum bit rate                         : 287 Kbps
Channel(s)                               : 2 channels
Channel positions                        : Front: L R
Sampling rate                            : 48.0 KHz
Compression mode                         : Lossy
Stream size                              : 36.7 MiB (4%)
Source stream size                       : 36.7 MiB (4%)
Language                                 : English
Encoded date                             : UTC 2014-10-14 21:23:25
Tagged date                              : UTC 2014-10-14 21:23:25


http://i74.fastpic.ru/thumb/2015/1104/f7/c5278b4934879d7d824b7b573f9d54f7.jpeg http://i74.fastpic.ru/thumb/2015/1104/21/ff433fd09737801f8ed7f2c48ba9d721.jpeg http://i74.fastpic.ru/thumb/2015/1104/a4/24b6aa99d8a4d0a4317b01f43a89e3a4.jpeg http://i74.fastpic.ru/thumb/2015/1104/14/c99dc29e58233547039a57beec758714.jpeg
Размер907.77 MB (951,869,919 байт)
Скачать Отодрали пышку - Laura Orsolya (Destination Laura)

:: Отзывы



Отзывы отсутствуют.

 :: Отзывов нет
РЕГИСТРАЦИЯ.

Смотрите бесплатное порно или эротику

footerLeft
Информация для правообладателей На ёгли вы скачаете порно, бесплатные фильмы, а также новинки кино. Все это бесплатно и без смс.