Cкачать бесплатно фильмы.
Поиск фильмов
Log Pass забыли?
  Бесплатные фильмы
Скачать Оттраханная черной бандой - Jenna Red (Justin Slayer s Black Pipe Layers 3)
КатегорияCreampies / Зрелые / Анал / Оргия / Межрассовое
Похожие фильмы



Похожие онлайн фильмы
Постер фильма Оттраханная черной бандой - Jenna Red (Justin Slayer s Black Pipe Layers 3)
Оттраханная черной бандой - Jenna Red (Justin Slayer s Black Pipe Layers 3)

Обзор



Выебали и высушили что называется

http://thumbnails116.imagebam.com/50719/b91867507184133.jpg http://thumbnails116.imagebam.com/50719/13e49a507184135.jpg http://thumbnails115.imagebam.com/50719/617660507184137.jpg http://thumbnails115.imagebam.com/50719/786dab507184138.jpg http://thumbnails115.imagebam.com/50719/9dbf83507184139.jpg http://thumbnails115.imagebam.com/50719/22763f507184140.jpg http://thumbnails116.imagebam.com/50719/8cfea5507184141.jpg http://thumbnails115.imagebam.com/50719/403700507184144.jpg

General
Complete name                  : C:UsersUserDownloadsAvsPhelpJenna Red (Justin Slayer's Black Pipe Layers 3).avi
Format                         : AVI
Format/Info                    : Audio Video Interleave
File size                      : 509 MiB
Duration                       : 34mn 7s
Overall bit rate               : 2 087 Kbps

Video
ID                             : 0
Format                         : AVC
Format/Info                    : Advanced Video Codec
Format profile                 : Main@L3.0
Format settings, CABAC         : Yes
Format settings, ReFrames      : 2 frames
Codec ID                       : H264
Duration                       : 34mn 7s
Source duration                : 34mn 7s
Bit rate                       : 2 024 Kbps
Width                          : 720 pixels
Height                         : 478 pixels
Display aspect ratio           : 4:3
Frame rate                     : 29.970 fps
Color space                    : YUV
Chroma subsampling             : 4:2:0
Bit depth                      : 8 bits
Scan type                      : Progressive
Bits/(Pixel*Frame)             : 0.196
Stream size                    : 491 MiB (96%)
Writing library                : x264 core 65
Encoding settings              : cabac=1 / ref=2 / deblock=1:0:0 / analyse=0x1:0x111 / me=umh / subme=6 / psy_rd=1.0:0.0 / mixed_ref=0 / me_range=16 / chroma_me=1 / trellis=0 / 8x8dct=0 / cqm=0 / deadzone=21,11 / chroma_qp_offset=-2 / threads=6 / nr=0 / decimate=1 / mbaff=0 / bframes=2 / b_pyramid=0 / b_adapt=1 / b_bias=0 / direct=1 / wpredb=0 / keyint=300 / keyint_min=30 / scenecut=40(pre) / rc=abr / bitrate=2024 / ratetol=1.0 / qcomp=0.60 / qpmin=10 / qpmax=51 / qpstep=4 / ip_ratio=1.40 / pb_ratio=1.30 / aq=1:1.00
Color primaries                : BT.601 NTSC
Transfer characteristics       : BT.709
Matrix coefficients            : BT.601
Color range                    : Limited

Audio
ID                             : 1
Format                         : MPEG Audio
Format version                 : Version 1
Format profile                 : Layer 3
Mode                           : Joint stereo
Mode extension                 : MS Stereo
Codec ID                       : 55
Codec ID/Hint                  : MP3
Duration                       : 34mn 7s
Source duration                : 34mn 7s
Bit rate mode                  : Constant
Bit rate                       : 64.0 Kbps
Channel(s)                     : 2 channels
Sampling rate                  : 44.1 KHz
Compression mode               : Lossy
Stream size                    : 15.6 MiB (3%)
Alignment                      : Split accross interleaves
Interleave, duration           : 26 ms (0.78 video frame)
Interleave, preload duration   : 1814 ms

Размер509.46 MB (534,210,004 байт)
Скачать Оттраханная черной бандой - Jenna Red (Justin Slayer s Black Pipe Layers 3)

:: Отзывы



Отзывы отсутствуют.

 :: Отзывов нет
РЕГИСТРАЦИЯ.

Смотрите бесплатное порно или эротику

footerLeft
Информация для правообладателей На ёгли вы скачаете порно, бесплатные фильмы, а также новинки кино. Все это бесплатно и без смс.