Cкачать бесплатно фильмы.
Поиск фильмов
Log Pass забыли?
  Бесплатные фильмы
Скачать Отъебанная нигерами - Skyler Price
КатегорияЖёсткое / Анал / Оргия / Груди
Похожие фильмы



Похожие онлайн фильмы
Постер фильма Отъебанная нигерами - Skyler Price
Отъебанная нигерами - Skyler Price

Обзор



Шлюху сняли на улице и нашпиговали своими хуями черные парни

http://thumbnails116.imagebam.com/50610/6072d8506095880.jpg http://thumbnails115.imagebam.com/50610/07d8e7506095881.jpg http://thumbnails115.imagebam.com/50610/ae3984506095883.jpg http://thumbnails116.imagebam.com/50610/873335506095885.jpg http://thumbnails116.imagebam.com/50610/038d74506095886.jpg http://thumbnails116.imagebam.com/50610/8ca62b506095887.jpg http://thumbnails116.imagebam.com/50610/6a95e3506095888.jpg http://thumbnails115.imagebam.com/50610/516bab506095889.jpg

General
Complete name                  : C:UsersUserDownloadsAvsPhelpSkyler Price.wmv
Format                         : Windows Media
File size                      : 416 MiB
Duration                       : 36mn 50s
Overall bit rate               : 1 580 Kbps
Maximum Overall bit rate       : 1 556 Kbps
Encoded date                   : UTC 1970-01-01 00:00:00.000
WM/EncodingSettings            : Lavf52.54.0

Video
ID                             : 1
Format                         : MPEG-4 Visual
Codec ID                       : MP43
Codec ID/Info                  : Microsoft MPEG-4 v3 (pre-standard)
Codec ID/Hint                  : Microsoft
Description of the codec       : msmpeg4
Duration                       : 36mn 50s
Bit rate                       : 1 452 Kbps
Width                          : 640 pixels
Height                         : 368 pixels
Display aspect ratio           : 1.739
Frame rate                     : 29.970 fps
Bit depth                      : 8 bits
Compression mode               : Lossy
Bits/(Pixel*Frame)             : 0.206
Stream size                    : 383 MiB (92%)

Audio
ID                             : 2
Format                         : WMA
Format version                 : Version 2
Codec ID                       : 161
Codec ID/Info                  : Windows Media Audio
Description of the codec       : Windows Media Audio V8
Duration                       : 36mn 50s
Bit rate                       : 56.0 Kbps
Channel(s)                     : 2 channels
Sampling rate                  : 22.05 KHz
Bit depth                      : 16 bits
Stream size                    : 14.8 MiB (4%)

Размер416.17 MB (436,382,007 байт)
Скачать Отъебанная нигерами - Skyler Price

:: Отзывы



Отзывы отсутствуют.

 :: Отзывов нет
РЕГИСТРАЦИЯ.

Смотрите бесплатное порно или эротику

footerLeft
Информация для правообладателей На ёгли вы скачаете порно, бесплатные фильмы, а также новинки кино. Все это бесплатно и без смс.