Cкачать бесплатно фильмы.
Поиск фильмов
Log Pass забыли?
  Бесплатные фильмы
Скачать Первое двойное проникновение - Ryan Conner (Bottom Feeders 2)
КатегорияОргия / Зрелые / Анал / Груди
Похожие фильмы



Похожие онлайн фильмы
Постер фильма Первое двойное проникновение - Ryan Conner (Bottom Feeders 2)
Первое двойное проникновение - Ryan Conner (Bottom Feeders 2)

Обзор



Шлюху первый раз ебут дуплетом


General
Complete name                            : C:UsersUserDownloadsRyan Conner (Bottom Feeders 2).mkv
Format                                   : Matroska
Format version                           : Version 1
File size                                : 1.19 GiB
Duration                                 : 26mn 50s
Overall bit rate mode                    : Variable
Overall bit rate                         : 6 362 Kbps
Writing application                      : Cyberlink Matroska Muxer v1.0.0
Writing library                          : libebml v0.7.8 + libmatroska v0.8.1

Video
ID                                       : 1
Format                                   : AVC
Format/Info                              : Advanced Video Codec
Format profile                           : High@L4.1
Format settings, CABAC                   : Yes
Format settings, ReFrames                : 2 frames
Codec ID                                 : V_MS/VFW/FOURCC / H264
Duration                                 : 26mn 50s
Bit rate mode                            : Variable
Bit rate                                 : 5 980 Kbps
Maximum bit rate                         : 7 200 Kbps
Width                                    : 720 pixels
Height                                   : 576 pixels
Display aspect ratio                     : 4:3
Frame rate mode                          : Constant
Frame rate                               : 25.000 fps
Standard                                 : PAL
Color space                              : YUV
Chroma subsampling                       : 4:2:0
Bit depth                                : 8 bits
Scan type                                : Interlaced
Scan order                               : Top Field First
Bits/(Pixel*Frame)                       : 0.577
Stream size                              : 1.12 GiB (94%)
Language                                 : English
Default                                  : Yes
Forced                                   : No

Audio
ID                                       : 2
Format                                   : AC-3
Format/Info                              : Audio Coding 3
Mode extension                           : CM (complete main)
Format settings, Endianness              : Big
Codec ID                                 : A_AC3
Duration                                 : 26mn 50s
Bit rate mode                            : Constant
Bit rate                                 : 256 Kbps
Channel(s)                               : 2 channels
Channel positions                        : Front: L R
Sampling rate                            : 48.0 KHz
Bit depth                                : 16 bits
Compression mode                         : Lossy
Stream size                              : 49.1 MiB (4%)
Language                                 : English
Default                                  : Yes
Forced                                   : No


http://i66.fastpic.ru/thumb/2015/1113/85/e715c06321aa27520c5ef572184e7785.jpeg http://i66.fastpic.ru/thumb/2015/1113/1b/14072ff25695b88a0cc9067604b7341b.jpeg http://i66.fastpic.ru/thumb/2015/1113/4d/e511daf97d24ec81ae2a6855886c484d.jpeg http://i66.fastpic.ru/thumb/2015/1113/e7/501db9c7f5ebb37123138ace345ab8e7.jpeg
Размер1.19 GB (1,280,466,940 байт)
Скачать Первое двойное проникновение - Ryan Conner (Bottom Feeders 2)

:: ОТЗЫВЫ


button_offline Отзыв от caktuz
avatar 258405

da nu , pervii raz .... tut 1001 raz a ne pervii

button_offline Отзыв от HEEPI
avatar 607206

На е лово! там  не  этот кинчик

РЕГИСТРАЦИЯ.

Смотрите бесплатное порно или эротику

footerLeft
Информация для правообладателей На ёгли вы скачаете порно, бесплатные фильмы, а также новинки кино. Все это бесплатно и без смс.