Cкачать бесплатно фильмы.
Поиск фильмов
Log Pass забыли?
  Бесплатные фильмы
Скачать Первый дуплет - залог карьеры - Kendal Karson
КатегорияОргия / Анал / Груди
Похожие фильмы



Похожие онлайн фильмы
Постер фильма Первый дуплет - залог карьеры - Kendal Karson
Первый дуплет - залог карьеры - Kendal Karson

Обзор



Шлюха первый раз исполняет DP


General
Complete name                            : C:UsersUserDownloadsKendal Karson's First DP.mp4
Format                                   : MPEG-4
Format profile                           : Base Media
Codec ID                                 : isom
File size                                : 463 MiB
Duration                                 : 30mn 6s
Overall bit rate                         : 2 152 Kbps
Writing application                      : Lavf56.23.106

Video
ID                                       : 1
Format                                   : AVC
Format/Info                              : Advanced Video Codec
Format profile                           : High@L3.2
Format settings, CABAC                   : Yes
Format settings, ReFrames                : 4 frames
Codec ID                                 : avc1
Codec ID/Info                            : Advanced Video Coding
Duration                                 : 30mn 6s
Bit rate                                 : 2 000 Kbps
Width                                    : 992 pixels
Height                                   : 558 pixels
Display aspect ratio                     : 16:9
Frame rate mode                          : Constant
Frame rate                               : 59.940 fps
Color space                              : YUV
Chroma subsampling                       : 4:2:0
Bit depth                                : 8 bits
Scan type                                : Progressive
Bits/(Pixel*Frame)                       : 0.060
Stream size                              : 433 MiB (93%)
Writing library                          : x264 core 142
Encoding settings                        : cabac=1 / ref=3 / deblock=1:0:0 / analyse=0x3:0x113 / me=hex / subme=7 / psy=1 / psy_rd=1.00:0.00 / mixed_ref=1 / me_range=16 / chroma_me=1 / trellis=1 / 8x8dct=1 / cqm=0 / deadzone=21,11 / fast_pskip=1 / chroma_qp_offset=-2 / threads=12 / lookahead_threads=2 / sliced_threads=0 / nr=0 / decimate=1 / interlaced=0 / bluray_compat=0 / constrained_intra=0 / bframes=3 / b_pyramid=2 / b_adapt=1 / b_bias=0 / direct=1 / weightb=1 / open_gop=0 / weightp=2 / keyint=300 / keyint_min=30 / scenecut=40 / intra_refresh=0 / rc_lookahead=40 / rc=abr / mbtree=1 / bitrate=2000 / ratetol=1.0 / qcomp=0.60 / qpmin=10 / qpmax=51 / qpstep=4 / ip_ratio=1.40 / aq=1:1.00

Audio
ID                                       : 2
Format                                   : AAC
Format/Info                              : Advanced Audio Codec
Format profile                           : LC
Codec ID                                 : 40
Duration                                 : 30mn 6s
Duration_LastFrame                       : -4ms
Bit rate mode                            : Constant
Bit rate                                 : 128 Kbps
Channel(s)                               : 2 channels
Channel positions                        : Front: L R
Sampling rate                            : 48.0 KHz
Compression mode                         : Lossy
Stream size                              : 27.6 MiB (6%)


http://i75.fastpic.ru/big/2015/1128/80/d853b14373f90fb0bb992df3b5336a80.gif http://i67.fastpic.ru/big/2015/1128/2c/050ab7e3b855fe56df23a07372224a2c.gif


http://i65.fastpic.ru/big/2015/1128/88/d9d7cdd8786ec85b1168d8608ff8ed88.jpg
Размер463.41 MB (485,919,049 байт)
Скачать Первый дуплет - залог карьеры - Kendal Karson

:: ОТЗЫВЫ


button_offline Отзыв от Hl1kojla
avatar 722321

епаный пиздец 8-) :w00t:

РЕГИСТРАЦИЯ.

Смотрите бесплатное порно или эротику

footerLeft
Информация для правообладателей На ёгли вы скачаете порно, бесплатные фильмы, а также новинки кино. Все это бесплатно и без смс.