Cкачать бесплатно фильмы.
Поиск фильмов
Log Pass забыли?
  Бесплатные фильмы
Скачать Подарок от таксиста - Candi Coxxx
КатегорияCreampies / Зрелые / Груди / Латинос
Похожие фильмы



Похожие онлайн фильмы
Постер фильма Подарок от таксиста - Candi Coxxx
Подарок от таксиста - Candi Coxxx

Обзор



Подвозя латнику, таксист сказал, что показывать сиськи - английская традиция, ну а потом и вообще развел на трах, накончав на память полную пизду спермы


General
Complete name                            : C:UsersUserDownloadsCandi Coxxx.mp4
Format                                   : MPEG-4
Format profile                           : Base Media
Codec ID                                 : isom
File size                                : 600 MiB
Duration                                 : 28mn 8s
Overall bit rate                         : 2 980 Kbps
Writing application                      : Lavf54.29.104

Video
ID                                       : 1
Format                                   : AVC
Format/Info                              : Advanced Video Codec
Format profile                           : High@L3.0
Format settings, CABAC                   : Yes
Format settings, ReFrames                : 4 frames
Codec ID                                 : avc1
Codec ID/Info                            : Advanced Video Coding
Duration                                 : 28mn 8s
Bit rate                                 : 2 700 Kbps
Width                                    : 852 pixels
Height                                   : 480 pixels
Display aspect ratio                     : 16:9
Frame rate mode                          : Constant
Frame rate                               : 24.000 fps
Color space                              : YUV
Chroma subsampling                       : 4:2:0
Bit depth                                : 8 bits
Scan type                                : Progressive
Bits/(Pixel*Frame)                       : 0.275
Stream size                              : 547 MiB (91%)
Writing library                          : x264 core 136
Encoding settings                        : cabac=1 / ref=1 / deblock=1:0:0 / analyse=0x3:0x113 / me=hex / subme=2 / psy=1 / psy_rd=1.00:0.00 / mixed_ref=0 / me_range=16 / chroma_me=1 / trellis=0 / 8x8dct=1 / cqm=0 / deadzone=21,11 / fast_pskip=1 / chroma_qp_offset=0 / threads=48 / lookahead_threads=3 / sliced_threads=0 / nr=0 / decimate=1 / interlaced=0 / bluray_compat=0 / constrained_intra=0 / bframes=3 / b_pyramid=2 / b_adapt=1 / b_bias=0 / direct=1 / weightb=1 / open_gop=0 / weightp=1 / keyint=48 / keyint_min=4 / scenecut=40 / intra_refresh=0 / rc_lookahead=10 / rc=abr / mbtree=1 / bitrate=2700 / ratetol=1.0 / qcomp=0.60 / qpmin=0 / qpmax=69 / qpstep=4 / ip_ratio=1.40 / aq=1:1.00
Language                                 : English
Tagged date                              : UTC 2014-07-24 09:14:33

Audio
ID                                       : 2
Format                                   : AAC
Format/Info                              : Advanced Audio Codec
Format profile                           : LC
Codec ID                                 : 40
Duration                                 : 28mn 8s
Bit rate mode                            : Constant
Bit rate                                 : 128 Kbps
Channel(s)                               : 2 channels
Channel positions                        : Front: L R
Sampling rate                            : 44.1 KHz
Compression mode                         : Lossy
Stream size                              : 25.8 MiB (4%)
Language                                 : English
Tagged date                              : UTC 2014-07-24 09:14:33

Other #1
ID                                       : 65536
Type                                     : Hint
Format                                   : RTP
Codec ID                                 : rtp
Duration                                 : 28mn 8s
Encoded date                             : UTC 2014-07-24 09:14:32
Tagged date                              : UTC 2014-07-24 09:14:33

Other #2
ID                                       : 65537
Type                                     : Hint
Format                                   : RTP
Codec ID                                 : rtp
Duration                                 : 28mn 8s
Encoded date                             : UTC 2014-07-24 09:14:33
Tagged date                              : UTC 2014-07-24 09:14:33
Bit rate mode                            : VBR


http://i76.fastpic.ru/thumb/2015/1103/11/7b79afdbd6a8b5cbcf292e32044dd811.jpeg http://i76.fastpic.ru/thumb/2015/1103/40/3d5df8e75e1ae7f09bda5a876f9f9140.jpeg http://i76.fastpic.ru/thumb/2015/1103/2e/dea4115eed8f57b6b697c3a633eaec2e.jpeg http://i76.fastpic.ru/thumb/2015/1103/62/86ca45c86055624f7f40a6ce1e9fa862.jpeg
Размер599.90 MB (629,044,057 байт)
Скачать Подарок от таксиста - Candi Coxxx

:: Отзывы



Отзывы отсутствуют.

 :: Отзывов нет
РЕГИСТРАЦИЯ.

Смотрите бесплатное порно или эротику

footerLeft
Информация для правообладателей На ёгли вы скачаете порно, бесплатные фильмы, а также новинки кино. Все это бесплатно и без смс.