Cкачать бесплатно фильмы.
Поиск фильмов
Log Pass забыли?
  Бесплатные фильмы
Скачать Пообещал молодой секретарше повышение - Jynx Maze - Office Perverts 6 Vitoldi Release 05.05.11
КатегорияСюжетное
Похожие фильмы



Похожие онлайн фильмы
Постер фильма Пообещал молодой секретарше повышение - Jynx Maze - Office Perverts 6 Vitoldi Release 05.05.11
Пообещал молодой секретарше повышение   - Jynx Maze - Office Perverts 6 Vitoldi Release 05.05.11

Обзор



Пообещал молодой секретарше повышение


Size: 247 MB
Duration: 00:19:47
Format: AVI
Video: 640x352




Информация о видео:

      Format : AVI
      Format/Info : Audio Video Interleave
      File size : 247 MiB
      Duration : 19mn 47s
      Overall bit rate : 1 744 Kbps
      Writing application : Nandub v1.0rc2
      Writing library : VirtualDub build 32817/release
   Video #0
      ID : 0
      Format : MPEG-4 Visual
      Codec ID : XVID
      Duration : 19mn 47s
      Bit rate : 1 608 Kbps
      Width : 640 pixels
      Height : 352 pixels
      Display aspect ratio : 16:9
      Frame rate : 29.970 fps
      Resolution : 24 bits
      Colorimetry : 4:2:0
      Scan type : Progressive
      Bits/(Pixel*Frame) : 0.238
      Stream size : 228 MiB (92%)
      Writing library : XviD 1.2.1 (UTC 2008-12-04)
   Audio #1
      ID : 1
      Format : MPEG Audio
      Format version : Version 1
      Format profile : Layer 3
      Codec ID : 55
      Codec ID/Hint : MP3
      Duration : 19mn 47s
      Bit rate mode : Variable
      Bit rate : 123 Kbps
      Channel(s) : 2 channels
      Sampling rate : 48.0 KHz
      Resolution : 16 bits
      Stream size : 17.4 MiB (7%)
      Alignment : Aligned on interleaves
      Interleave, duration : 24 ms (0.72 video frame)
      Interleave, preload duration : 513 ms

Скрин:
http://pic4you.ru/allimage/y2011/05-05/7830/878795.jpg
Размер247.13 MB (259,135,509 байт)
Скачать Пообещал молодой секретарше повышение - Jynx Maze - Office Perverts 6 Vitoldi Release 05.05.11
Файлы
[Посмотреть список]
4 файлы

:: Отзывы



Отзывы отсутствуют.

 :: Отзывов нет
РЕГИСТРАЦИЯ.

Смотрите бесплатное порно или эротику

footerLeft
Информация для правообладателей На ёгли вы скачаете порно, бесплатные фильмы, а также новинки кино. Все это бесплатно и без смс.