Cкачать бесплатно фильмы.
Поиск фильмов
Log Pass забыли?
  Бесплатные фильмы
Скачать ПорноСтары - Pornstars Punishment SiteRip-FL
КатегорияЖёсткое
Похожие фильмы



Похожие онлайн фильмы
Постер фильма ПорноСтары - Pornstars Punishment SiteRip-FL
ПорноСтары - Pornstars Punishment SiteRip-FL

Обзор



Pornstars Punishment SiteRip-FL

http://blackassfest.info/image-share/images/37517171835648885904.jpg


Format                           : MPEG-4
Format profile                   : Base Media
Codec ID                         : isom
File size                        : 256 MiB
Duration                         : 30mn 40s
Overall bit rate                 : 1 167 Kbps

Video
ID                               : 1
Format                           : AVC
Format/Info                      : Advanced Video Codec
Format profile                   : Baseline@L1.3
Format settings, CABAC           : No
Format settings, ReFrames        : 1 frame
Codec ID                         : avc1
Codec ID/Info                    : Advanced Video Coding
Duration                         : 30mn 39s
Bit rate                         : 1 100 Kbps
Maximum bit rate                 : 1 887 Kbps
Width                            : 768 pixels
Height                           : 432 pixels
Display aspect ratio             : 16:9
Frame rate mode                  : Variable
Frame rate                       : 29.970 fps
Minimum frame rate               : 14.985 fps
Maximum frame rate               : 29.970 fps
Color space                      : YUV
Chroma subsampling               : 4:2:0
Bit depth                        : 8 bits
Scan type                        : Progressive
Bits/(Pixel*Frame)               : 0.111
Stream size                      : 241 MiB (94%)

Audio
ID                               : 2
Format                           : AAC
Format/Info                      : Advanced Audio Codec
Format profile                   : LC
Codec ID                         : 40
Duration                         : 30mn 40s
Bit rate mode                    : Variable
Bit rate                         : 66.15 Kbps
Maximum bit rate                 : 137 Kbps
Channel(s)                       : 2 channels
Channel positions                : Front: L R
Sampling rate                    : 22.05 KHz
Compression mode                 : Lossy
Stream size                      : 14.3 MiB (6%)


http://blackassfest.info/image-share/images/18293161970564009095.jpg http://blackassfest.info/image-share/images/92545515955452074315.jpg http://blackassfest.info/image-share/images/21305945758032584137.jpg http://blackassfest.info/image-share/images/88415774981828240604.jpg
Размер25.00 GB (26,840,581,240 байт)
Скачать ПорноСтары - Pornstars Punishment SiteRip-FL
Файлы
[Посмотреть список]
96 файлы

:: ОТЗЫВЫ


button_offline Отзыв от 1011
avatar 734071

Выложи скрины ко всем роликам.

button_offline Отзыв от Devilishangl
avatar 245849

согласен а то как кота в мешке покупаешь((( :-/ :-/ :-/

button_offline Отзыв от brutal22
avatar 198526

мне большего нечего делать...  если что то не нравится не качай!!!

button_offline Отзыв от azWolf
avatar 255091

[brutal22] заскриншотить-разместить 20 минут, а заработать к себе отношение ...нам не нравишься ты!

button_offline Отзыв от brutal22
avatar 198526

мне это неинтересно, постарайся не беспокоить меня тупыми коментарями!

button_offline Отзыв от azWolf
avatar 255091

[brutal22] расслабься,клал я на тебя с колокольни

Последний раз редактировалось azWolf в 2011-09-11 02:20:54


button_offline Отзыв от Sango Human
avatar 739835

Скрины можно в Rar зашить и выложить уж потрудись! :-)

РЕГИСТРАЦИЯ.

Смотрите бесплатное порно или эротику

footerLeft
Информация для правообладателей На ёгли вы скачаете порно, бесплатные фильмы, а также новинки кино. Все это бесплатно и без смс.