Cкачать бесплатно фильмы.
Поиск фильмов
Log Pass забыли?
  Бесплатные фильмы
Скачать Последний из могикан , The Last of the Mohicans [Director s Definitive Cut] [x264] [1992 | BDRip]
КатегорияДрама
Похожие фильмы



Похожие онлайн фильмы
Постер фильма Последний из могикан , The Last of the Mohicans [Director s Definitive Cut] [x264] [1992 | BDRip]
Последний из могикан , The Last of the Mohicans [Director s Definitive Cut] [x264] [1992 | BDRip]

Трэйлер


aMZtQhhS14w&feature=player_embedded

Обзор



Название: Последний из могикан
Оригинальное название: The Last of the Mohicans
Год выхода: 1992
Cтрана: США
Жанр: Мелодрама, Военный, Приключения
Режиссер: Майкл Манн
Cценарий:  Филип Данн, Майкл Манн, Кристофер Кроу
В ролях: Дэниэл Дэй-Льюис, Мэдлин Стоу, Рассел Минс, Эрик Швейг, Джоди Мей, Стивен Вэддингтон, Уэс Студи, Морис Роевз, Патрис Шеро, Эдвард Блэтчфорд
Продолжительность:  1h 54mn
Язык:  Русский; Профессиональный (многоголосый закадровый)
Cубтитры: Pусские (Forced)

О фильме:
«The first American hero.»
1757 год. Англо-французская война за американские колонии в самом разгаре. Дочери полковника Манро пытаются пробраться в осажденный французами английский форт. Им на помощь приходит молодой белый охотник Соколиный Глаз. Между Соколиным Глазом, выросшим среди индейцев племени могикан, и старшей из дочерей, утонченной Корой, вспыхивает взаимное чувство. Но Кора и ее сестра попадают в плен к союзникам французов — гуронам, и от мучительной смерти их могут спасти только Соколиный Глаз и его верные друзья — индейцы…

http://zamolxismd.org/m/funkyimg.com/u2/1202/706/264176grab3.pnghttp://zamolxismd.org/m/funkyimg.com/u2/1202/708/190819grab15.png
http://zamolxismd.org/m/funkyimg.com/u2/1202/710/310505grab18.pnghttp://zamolxismd.org/m/funkyimg.com/u2/1202/712/344671grab22.png
http://zamolxismd.org/m/funkyimg.com/u2/1202/714/224181grab25.pnghttp://zamolxismd.org/m/funkyimg.com/u2/1202/716/602818grab27.png
http://zamolxismd.org/m/funkyimg.com/u2/1202/718/118063grab30.pnghttp://zamolxismd.org/m/funkyimg.com/u2/1202/720/194168grab33.png
http://zamolxismd.org/m/funkyimg.com/u2/1202/722/139328grab39.pnghttp://zamolxismd.org/m/funkyimg.com/u2/1202/724/177645grab40.png
http://zamolxismd.org/m/funkyimg.com/u2/1202/726/794736grab41.pnghttp://zamolxismd.org/m/funkyimg.com/u2/1202/728/984842grab42.png
http://zamolxismd.org/m/funkyimg.com/u2/1202/730/229422grab43.pnghttp://zamolxismd.org/m/funkyimg.com/u2/1202/734/762538grab45.png

Награды писал

http://zamolxismd.org/m/st.kinopoisk.ru/images/movies/awardOscar.png
Оскар, 1993 год

Победитель

Лучший звук


http://zamolxismd.org/m/st.kinopoisk.ru/images/movies/awardGoldenGlobe.png
Золотой глобус, 1993 год

Номинации

Лучший саундтрек


http://zamolxismd.org/m/st.kinopoisk.ru/images/award-bafta-small.jpg
Британская академия, 1993 год

Победитель

Лучшая работа оператора
Лучший грим


Номинации

Лучшая мужская роль (Дэниэл Дэй-Льюис)
Лучшие костюмы
Лучший звук
Лучший саундтрек
Лучшая работа художника-постановщика



MediaInfo писал

General

Complete name                  : The.Last.Of.The.Mohicans.1992.Directors.Definitive.Cut.BDrip.x264.HDT.mkv
Format                         : Matroska
Format version                 : Version 2
File size                      : 1.36 GiB
Duration                       : 1h 54mn
Overall bit rate               : 1 705 Kbps
Encoded date                   : UTC 2012-01-12 14:51:24
Writing application            : mkvmerge v3.3.0 ('Language') built on Mar 24 2010 14:59:24
Writing library                : libebml v0.8.0 + libmatroska v0.9.0

Video
ID                             : 1
Format                         : AVC
Format/Info                    : Advanced Video Codec
Format profile                 : High@L4.1
Format settings, CABAC         : Yes
Format settings, ReFrames      : 9 frames
Codec ID                       : V_MPEG4/ISO/AVC
Duration                       : 1h 54mn
Bit rate                       : 1 256 Kbps
Width                          : 720 pixels
Height                         : 304 pixels
Display aspect ratio           : 2.35:1
Frame rate                     : 23.976 fps
Color space                    : YUV
Chroma subsampling             : 4:2:0
Bit depth                      : 8 bits
Scan type                      : Progressive
Bits/(Pixel*Frame)             : 0.239
Stream size                    : 1 002 MiB (72%)
Writing library                : x264 core 115 r1995 c1e60b9
Encoding settings              : cabac=1 / ref=9 / deblock=1:-3:-3 / analyse=0x3:0x113 / me=umh /
subme=7 / psy=1 / psy_rd=1.20:0.00 / mixed_ref=1 / me_range=32 / chroma_me=1 / trellis=2 / 8x8dct=1 /
cqm=0 / deadzone=21,11 / fast_pskip=1 / chroma_qp_offset=-2 / threads=12 / sliced_threads=0 / nr=0 /
decimate=1 / interlaced=0 / bluray_compat=0 / constrained_intra=0 / bframes=6 / b_pyramid=2 / b_adapt=2 /
b_bias=0 / direct=1 / weightb=1 / open_gop=0 / weightp=2 / keyint=250 / keyint_min=23 / scenecut=40 /
intra_refresh=0 / rc_lookahead=40 / rc=2pass / mbtree=1 / bitrate=1256 / ratetol=1.0 / qcomp=0.60 /
qpmin=10 / qpmax=69 / qpstep=4 / cplxblur=20.0 / qblur=0.5 / vbv_maxrate=40000 / vbv_bufsize=30000 /
nal_hrd=none / ip_ratio=1.40 / aq=1:1.00

Language                       : English

Audio
ID                             : 2
Format                         : AC-3
Format/Info                    : Audio Coding 3
Mode extension                 : CM (complete main)
Codec ID                       : A_AC3
Duration                       : 1h 54mn
Bit rate mode                  : Constant
Bit rate                       : 448 Kbps
Channel(s)                     : 6 channels
Channel positions              : Front: L C R, Side: L R, LFE
Sampling rate                  : 48.0 KHz
Bit depth                      : 16 bits
Compression mode               : Lossy
Stream size                    : 367 MiB (26%)
Language                       : Russian

Text
ID                             : 3
Format                         : UTF-8
Codec ID                       : S_TEXT/UTF8
Codec ID/Info                  : UTF-8 Plain Text
Title                          : Forced
Language                       : Russian





ФАЙЛ
Качество: BDRip
Видео:  AVC, 720x304 (2.35:1), 23.976 fps, 1 256 Kbps (0.239 bit/pixel)
Звук: AC-3, 48.0 KHz, 6 ch, 448 Kbps, CBR (Russian)



Пожалуйста не забывайте нажимать СПАСИБО - автору приятно и полезно!
Размер1.36 GB (1,464,605,602 байт)
Скачать Последний из могикан , The Last of the Mohicans [Director s Definitive Cut] [x264] [1992 | BDRip]

:: ОТЗЫВЫ


button_offline Отзыв от weker
avatar 699752

оооооооооо поглядим)))))

button_offline Отзыв от egik333
avatar 749985

Спасибо за оформление !!!

РЕГИСТРАЦИЯ.

Смотрите бесплатное порно или эротику

footerLeft
Информация для правообладателей На ёгли вы скачаете порно, бесплатные фильмы, а также новинки кино. Все это бесплатно и без смс.