Cкачать бесплатно фильмы.
Поиск фильмов
Log Pass забыли?
  Бесплатные фильмы
Скачать Природа,солнышко,травка,естественный секс,в общем - обоссаться... - Rachel Evans, Marsha, with friends |fullclothedpissing.com|09.05.11 Vitoldi Release
КатегорияДругое
Похожие фильмы



Похожие онлайн фильмы
Постер фильма Природа,солнышко,травка,естественный секс,в общем - обоссаться... - Rachel Evans, Marsha, with friends |fullclothedpissing.com|09.05.11 Vitoldi Release
Природа,солнышко,травка,естественный секс,в общем - обоссаться... - Rachel Evans, Marsha, with friends |fullclothedpissing.com|09.05.11 Vitoldi Release

Обзор



Информация о видео:

      Format : Windows Media
      File size : 646 MiB
      Duration : 28mn 8s
      Overall bit rate mode : Variable
      Overall bit rate : 3 211 Kbps
      Maximum Overall bit rate : 5 215 Kbps
      Performer : Eromaxx.net
      Encoded date : UTC 2009-07-16 10:02:06.161
      Copyright : Eromaxx.net
   Video #2
      ID : 2
      Format : VC-1
      Format profile : MP@HL
      Codec ID : WMV3
      Codec ID/Info : Windows Media Video 9
      Codec ID/Hint : WMV3
      Description of the codec : Windows Media Video 9 - Professional
      Duration : 28mn 8s
      Bit rate mode : Variable
      Bit rate : 3 000 Kbps
      Width : 1 280 pixels
      Height : 720 pixels
      Display aspect ratio : 16:9
      Frame rate : 25.000 fps
      Resolution : 24 bits
      Scan type : Progressive
      Bits/(Pixel*Frame) : 0.130
      Stream size : 604 MiB (93%)
   Audio #1
      ID : 1
      Format : WMA2
      Format profile : L3
      Codec ID : 161
      Codec ID/Info : Windows Media Audio 2
      Description of the codec : Windows Media Audio 9.2 - 192 kbps, 44 kHz, stereo 2-pass CBR
      Duration : 28mn 8s
      Bit rate mode : Constant
      Bit rate : 192 Kbps
      Channel(s) : 2 channels
      Sampling rate : 44.1 KHz
      Resolution : 16 bits
      Stream size : 38.6 MiB (6%)

http://i20.fastpic.ru/big/2011/0509/e2/a3a050516465c80ff9b02f23b4897ee2.png
http://i20.fastpic.ru/big/2011/0509/6b/30cf0cdd7e57fe08c3d0ee1b92bf666b.png
http://i20.fastpic.ru/big/2011/0509/ce/5cec6989bfd52e6f09227f77f67bfdce.png
http://i20.fastpic.ru/big/2011/0509/7a/92cef0b1890d21d277f085b0102a6e7a.png
http://i20.fastpic.ru/big/2011/0509/8d/b4a5b0b7f4ecd435afa403730e80d48d.png
http://i20.fastpic.ru/big/2011/0509/d4/d67b1d036833e7ff62c7d471bd58add4.png
http://i20.fastpic.ru/big/2011/0509/a8/10a8004f8ca1e8ce84a02a6dbabe03a8.png



скрины подробнее:
http://pic4you.ru/allimage/y2011/05-09/7830/890481-thumb.jpg
http://pic4you.ru/allimage/y2011/05-09/7830/890482-thumb.jpg
Размер657.43 MB (689,362,129 байт)
Скачать Природа,солнышко,травка,естественный секс,в общем - обоссаться... - Rachel Evans, Marsha, with friends |fullclothedpissing.com|09.05.11 Vitoldi Release
Файлы
[Посмотреть список]
12 файлы

:: Отзывы



Отзывы отсутствуют.

 :: Отзывов нет
РЕГИСТРАЦИЯ.

Смотрите бесплатное порно или эротику

footerLeft
Информация для правообладателей На ёгли вы скачаете порно, бесплатные фильмы, а также новинки кино. Все это бесплатно и без смс.