Cкачать бесплатно фильмы.
Поиск фильмов
Log Pass забыли?
  Бесплатные фильмы
Скачать Проткнутая черными хуями - Angela White
КатегорияМежрассовое / Анал / Оргия / Груди
Похожие фильмы



Похожие онлайн фильмы
Постер фильма Проткнутая черными хуями - Angela White
Проткнутая черными хуями - Angela White

Обзор



Анжела Вайт решила заполнить все дырки до отказа негритянскими членами. Это ее третий DP вроде бы


General
Complete name                            : C:UsersUserDownloadsAngela White.mp4
Format                                   : MPEG-4
Format profile                           : Base Media / Version 2
Codec ID                                 : mp42
File size                                : 565 MiB
Duration                                 : 38mn 22s
Overall bit rate mode                    : Variable
Overall bit rate                         : 2 060 Kbps
Movie name                               : Angela White_Airtight_Angela 2 (2015)
Album                                    : ANGELA_2_D2
Encoded date                             : UTC 2015-09-28 22:35:38
Tagged date                              : UTC 2015-09-28 23:23:05
Writing application                      : DVDFab 9.2.0.8
covr                                     : Unknown kind of value!

Video
ID                                       : 1
Format                                   : AVC
Format/Info                              : Advanced Video Codec
Format profile                           : Main@L3.0
Format settings, CABAC                   : Yes
Format settings, ReFrames                : 1 frame
Format settings, GOP                     : M=1, N=24
Codec ID                                 : avc1
Codec ID/Info                            : Advanced Video Coding
Duration                                 : 38mn 22s
Bit rate                                 : 1 923 Kbps
Width                                    : 856 pixels
Height                                   : 480 pixels
Display aspect ratio                     : 16:9
Frame rate mode                          : Constant
Frame rate                               : 23.976 fps
Color space                              : YUV
Chroma subsampling                       : 4:2:0
Bit depth                                : 8 bits
Scan type                                : Progressive
Bits/(Pixel*Frame)                       : 0.195
Stream size                              : 528 MiB (93%)
Writing library                          : x264 core 142
Encoding settings                        : cabac=1 / ref=1 / deblock=1:0:0 / analyse=0x1:0x111 / me=umh / subme=6 / psy=0 / mixed_ref=0 / me_range=12 / chroma_me=1 / trellis=0 / 8x8dct=0 / cqm=0 / deadzone=21,11 / fast_pskip=1 / chroma_qp_offset=0 / threads=2 / lookahead_threads=1 / sliced_threads=0 / nr=0 / decimate=1 / interlaced=0 / bluray_compat=0 / constrained_intra=0 / bframes=0 / weightp=0 / keyint=24 / keyint_min=13 / scenecut=40 / intra_refresh=0 / rc=crf / mbtree=0 / crf=20.0 / qcomp=0.60 / qpmin=0 / qpmax=69 / qpstep=4 / ip_ratio=1.40 / aq=1:1.00
Encoded date                             : UTC 2015-09-28 22:35:38
Tagged date                              : UTC 2015-09-28 23:23:05
Color primaries                          : BT.601 NTSC
Transfer characteristics                 : BT.709
Matrix coefficients                      : BT.601

Audio
ID                                       : 2
Format                                   : AAC
Format/Info                              : Advanced Audio Codec
Format profile                           : LC
Codec ID                                 : 40
Duration                                 : 38mn 22s
Bit rate mode                            : Variable
Bit rate                                 : 128 Kbps
Maximum bit rate                         : 136 Kbps
Channel(s)                               : 2 channels
Channel positions                        : Front: L R
Sampling rate                            : 44.1 KHz
Compression mode                         : Lossy
Stream size                              : 35.1 MiB (6%)
Language                                 : English
Encoded date                             : UTC 2015-09-28 22:35:38
Tagged date                              : UTC 2015-09-28 23:23:05


http://i66.fastpic.ru/thumb/2015/1102/f8/7e66025e9bd46396ce15060c6347f1f8.jpeg http://i66.fastpic.ru/thumb/2015/1102/1f/6150542c719e61acbaf6875fba2be31f.jpeg http://i66.fastpic.ru/thumb/2015/1102/c9/4b1d0ea6bee362ec8414d71485f173c9.jpeg http://i66.fastpic.ru/thumb/2015/1102/ae/9f85c046bf5793471100b75bc4cfe0ae.jpeg
Размер565.39 MB (592,853,458 байт)
Скачать Проткнутая черными хуями - Angela White

:: Отзывы



Отзывы отсутствуют.

 :: Отзывов нет
РЕГИСТРАЦИЯ.

Смотрите бесплатное порно или эротику

footerLeft
Информация для правообладателей На ёгли вы скачаете порно, бесплатные фильмы, а также новинки кино. Все это бесплатно и без смс.