Cкачать бесплатно фильмы.
Поиск фильмов
Log Pass забыли?
  Бесплатные фильмы
Скачать Прыгающие сиськи - Anastasia Lux (All natural 32H from Europe, with Love!)
КатегорияЛатинос / Зрелые / Груди
Похожие фильмы



Похожие онлайн фильмы
Постер фильма Прыгающие сиськи - Anastasia Lux (All natural 32H from Europe, with Love!)
Прыгающие сиськи - Anastasia Lux (All natural 32H from Europe, with Love!)

Обзор



Латинская проститука покажет вам, чем надо заниматься у бассаейна


General
Complete name                            : C:UsersUserDownloadsAnastasia Lux (All natural 32H from Europe, with Love!).mp4
Format                                   : MPEG-4
Format profile                           : Base Media
Codec ID                                 : isom
File size                                : 200 MiB
Duration                                 : 35mn 54s
Overall bit rate mode                    : Variable
Overall bit rate                         : 777 Kbps
Writing application                      : Lavf55.12.100

Video
ID                                       : 1
Format                                   : AVC
Format/Info                              : Advanced Video Codec
Format profile                           : Main@L3.0
Format settings, CABAC                   : Yes
Format settings, ReFrames                : 6 frames
Codec ID                                 : avc1
Codec ID/Info                            : Advanced Video Coding
Duration                                 : 35mn 53s
Bit rate                                 : 700 Kbps
Width                                    : 640 pixels
Height                                   : 360 pixels
Display aspect ratio                     : 16:9
Frame rate mode                          : Constant
Frame rate                               : 30.000 fps
Color space                              : YUV
Chroma subsampling                       : 4:2:0
Bit depth                                : 8 bits
Scan type                                : Progressive
Bits/(Pixel*Frame)                       : 0.101
Stream size                              : 178 MiB (89%)
Writing library                          : x264 core 124 r2019+178 69a0443
Encoding settings                        : cabac=1 / ref=6 / deblock=1:0:0 / analyse=0x1:0x111 / me=hex / subme=6 / psy=1 / psy_rd=1.00:0.00 / mixed_ref=1 / me_range=16 / chroma_me=1 / trellis=1 / 8x8dct=0 / cqm=0 / deadzone=21,11 / fast_pskip=1 / chroma_qp_offset=-2 / threads=12 / sliced_threads=0 / nr=0 / decimate=1 / interlaced=0 / bluray_compat=0 / constrained_intra=0 / bframes=3 / b_pyramid=2 / b_adapt=1 / b_bias=0 / direct=1 / weightb=1 / open_gop=0 / weightp=2 / keyint=60 / keyint_min=25 / scenecut=40 / intra_refresh=0 / rc_lookahead=40 / rc=2pass / mbtree=1 / bitrate=700 / ratetol=1.0 / qcomp=0.60 / qpmin=10 / qpmax=51 / qpstep=4 / cplxblur=20.0 / qblur=0.5 / vbv_maxrate=700 / vbv_bufsize=1400 / nal_hrd=none / ip_ratio=1.41 / aq=1:1.00
Language                                 : English

Audio
ID                                       : 2
Format                                   : AAC
Format/Info                              : Advanced Audio Codec
Format profile                           : LC
Codec ID                                 : 40
Duration                                 : 35mn 54s
Duration_LastFrame                       : -21ms
Bit rate mode                            : Variable
Bit rate                                 : 74.8 Kbps
Maximum bit rate                         : 700 Kbps
Channel(s)                               : 2 channels
Channel positions                        : Front: L R
Sampling rate                            : 44.1 KHz
Compression mode                         : Lossy
Stream size                              : 19.2 MiB (10%)
Language                                 : English


http://i76.fastpic.ru/big/2015/1128/09/ce62e5a4ae260e749889f36093fd5209.gif http://i74.fastpic.ru/big/2015/1128/e9/601b8b283d912f40810704d45ab8e0e9.gif
http://i66.fastpic.ru/big/2015/1128/58/95833b594e6cd80196c5d4d81a273f58.gif


http://i73.fastpic.ru/big/2015/1128/ba/821085dbdee5ff2eaae0e98491c243ba.jpg
Размер199.51 MB (209,198,921 байт)
Скачать Прыгающие сиськи - Anastasia Lux (All natural 32H from Europe, with Love!)

:: Отзывы



Отзывы отсутствуют.

 :: Отзывов нет
РЕГИСТРАЦИЯ.

Смотрите бесплатное порно или эротику

footerLeft
Информация для правообладателей На ёгли вы скачаете порно, бесплатные фильмы, а также новинки кино. Все это бесплатно и без смс.