Cкачать бесплатно фильмы.
Поиск фильмов
Log Pass забыли?
  Бесплатные фильмы
Скачать Пункт назначения 5 , Final Destination 5 [x264] [2011 | BDRip]
КатегорияУжасы / Триллер
Похожие фильмы



Похожие онлайн фильмы
Постер фильма Пункт назначения 5 , Final Destination 5 [x264] [2011 | BDRip]
Пункт назначения 5 ,  Final Destination 5 [x264] [2011 | BDRip]

Трэйлер


BU-UrBeNV68&feature=player_embedded

Обзор



Название: Пункт назначения 5
Оригинальное название:  Final Destination 5
Год выхода: 2011
Cтрана: США, New Line Cinema
Режиссер: Стивен Куэйл
Cценарий: Эрик Хайссерер, Джеффри Реддик
В ролях: Николас Д’Агосто, Эмма Белл, Майлз Фишер, Эллен Ро, Жаклин МакИннес Вуд, П.Дж. Бирн, Арлен Эскарпета, Дэвид Кокнер, Кортни Б. Вэнс, Тони Тодд...
Продолжительность: 01:31:49
Язык: Русский Профессиональный (Полное дублирование) | Лицензия
Звук с лицензии  R5

Примечание: Данный рип не будет воспроизводиться на бытовых плеерах, не поддерживающих кодеки   H.264

О фильме:
«Опасность ещё не была столь близка»


У Сэма Лоутона происходит жуткое видение: подвесной мост, на котором он находится со своими друзьями, рушится, и многие люди, включая его самого, погибают. Сэм начинает паниковать и уговаривает своих друзей и ещё нескольких «счастливчиков» уйти с моста. И как раз вовремя: как и предвидел Сэм, мост рушится на их глазах и множество людей погибает. Однако Сэм и его девушка Молли понимают, что смерть дала им лишь отсрочку, так как выжившие начинают погибать один за другим. Он должен понять, как обманув смерть однажды, обмануть её ещё раз, прежде чем настанет его очередь.


http://zamolxismd.org/m/s7.directupload.net/images/111212/64g5rs4o.jpghttp://zamolxismd.org/m/s1.directupload.net/images/111212/px2rezor.jpg
http://zamolxismd.org/m/s1.directupload.net/images/111212/zxmveesm.jpghttp://zamolxismd.org/m/s1.directupload.net/images/111212/v7swfin9.jpg
http://zamolxismd.org/m/s14.directupload.net/images/111212/asuftt5r.jpg



ФАЙЛ
Качество: BDRip
Видео: AVC, 720x304 (2.35), 23.976 fps, 1677 Kbps
Звук: AC-3, 48.0 KHz, 6 ch, 448 Kbps, CBR


MediaInfo писал
Punkt.Naznachenija.5.2011.D.HDRip.x264.1400MB.mkv
Format                          : Matroska
File size                        : 1.36 GiB
Duration                        : 1h 31mn
Overall bit rate                : 2 126 Kbps
Encoded date                    : UTC 2011-12-12 15:29:07
Writing application              : mkvmerge v3.3.0 ('Language') built on Mar 24 2010 14:59:24
Writing library                  : libebml v0.8.0 + libmatroska v0.9.0

Video
ID                              : 1
Format                          : AVC.
Format/Info                      : Advanced Video Codec
Format profile                  : High@L3.1
Format settings, CABAC          : Yes
Format settings, ReFrames        : 12 frames
Muxing mode                      : Container profile=Unknown@3.1
Codec ID                        : V_MPEG4/ISO/AVC
Duration                        : 1h 31mn
Bit rate                        : 1 677 Kbps
Width                            : 720 pixels
Height                          : 304 pixels
Display aspect ratio            : 2.35:1
Frame rate                      : 23.976 fps
Color space                      : YUV
Chroma subsampling              : 4:2:0
Bit depth                        : 8 bits
Scan type                        : Progressive
Bits/(Pixel*Frame)              : 0.320
Stream size                      : 1.05 GiB (77%)
Writing library                  : x264 core 92 r1510 33d382a
Encoding settings                : cabac=1 / ref=12 / deblock=1:-3:-3 / analyse=0x3:0x133 / me=umh / subme=7 / psy=1 / psy_rd=1.00:0.10 / mixed_ref=1 / me_range=16 / chroma_me=1 / trellis=2 / 8x8dct=1 / cqm=0 / deadzone=21,11 / fast_pskip=0 / chroma_qp_offset=-3 / threads=3 / sliced_threads=0 / nr=0 / decimate=1 / interlaced=0 / constrained_intra=0 / bframes=3 / b_pyramid=2 / b_adapt=2 / b_bias=0 / direct=3 / wpredb=1 / wpredp=2 / keyint=250 / keyint_min=25 / scenecut=40 / intra_refresh=0 / rc_lookahead=50 / rc=2pass / mbtree=1 / bitrate=1677 / ratetol=1.0 / qcomp=0.60 / qpmin=10 / qpmax=51 / qpstep=4 / cplxblur=20.0 / qblur=0.5 / ip_ratio=1.40 / aq=1:1.00

Audio
ID                              : 2
Format                          : AC-3
Format/Info                      : Audio Coding 3
Mode extension                  : CM (complete main)
Codec ID                        : A_AC3
Duration                        : 1h 31mn
Bit rate mode                    : Constant
Bit rate                        : 448 Kbps
Channel(s)                      : 6 channels
Channel positions                : Front: L C R, Side: L R, LFE
Sampling rate                    : 48.0 KHz
Bit depth                        : 16 bits
Stream size                      : 294 MiB (21%)


Пожалуйста не забывайте нажимать СПАСИБО - автору приятно и полезно!
Размер1.36 GB (1,464,565,644 байт)
Скачать Пункт назначения 5 , Final Destination 5 [x264] [2011 | BDRip]

:: ОТЗЫВЫ


button_offline Отзыв от darus
avatar 239370

ничего нового не представили, может хватит!

РЕГИСТРАЦИЯ.

Смотрите бесплатное порно или эротику

footerLeft
Информация для правообладателей На ёгли вы скачаете порно, бесплатные фильмы, а также новинки кино. Все это бесплатно и без смс.