Cкачать бесплатно фильмы.
Поиск фильмов
Log Pass забыли?
  Бесплатные фильмы
Скачать Рай больших сисек - Кайла Кливедж - Big Tit Paradise - Kayla Kleevage
КатегорияЗрелые / Груди
Похожие фильмы



Похожие онлайн фильмы
Постер фильма Рай больших сисек - Кайла Кливедж - Big Tit Paradise - Kayla Kleevage
Рай больших сисек - Кайла Кливедж - Big Tit Paradise - Kayla Kleevage
Фото фильма Рай больших сисек - Кайла Кливедж - Big Tit Paradise - Kayla Kleevage
Рай больших сисек - Кайла Кливедж - Big Tit Paradise - Kayla Kleevage

Обзор



Супер звезда в тяжелом весе снова на арене!!!Супер сиськи супер зрелое, уже конечно, но еще тело!На любителя! Наслаждайтесь!



Format                           : AVI
Format/Info                      : Audio Video Interleave
File size                        : 254 MiB
Duration                         : 21mn 50s
Overall bit rate                 : 1 623 Kbps
Writing application              : Nandub v1.0rc2
Writing library                  : Nandub build 1853/release

Video
ID                               : 0
Format                           : MPEG-4 Visual
Format profile                   : AdvancedSimple@L5
Format settings, BVOP            : Yes
Format settings, QPel            : No
Format settings, GMC             : No warppoints
Format settings, Matrix          : Default (H.263)
Codec ID                         : XVID
Codec ID/Hint                    : XviD
Duration                         : 21mn 50s
Bit rate                         : 1 484 Kbps
Width                            : 448 pixels
Height                           : 336 pixels
Display aspect ratio             : 4:3
Frame rate                       : 29.970 fps
Resolution                       : 24 bits
Colorimetry                      : 4:2:0
Scan type                        : Progressive
Bits/(Pixel*Frame)               : 0.329
Stream size                      : 232 MiB (91%)
Writing library                  : XviD 1.0.2 (UTC 2004-08-29)

Audio
ID                               : 1
Format                           : MPEG Audio
Format version                   : Version 1
Format profile                   : Layer 3
Codec ID                         : 55
Codec ID/Hint                    : MP3
Duration                         : 21mn 50s
Bit rate mode                    : Variable
Bit rate                         : 125 Kbps
Channel(s)                       : 2 channels
Sampling rate                    : 48.0 KHz
Resolution                       : 16 bits
Stream size                      : 19.6 MiB (8%)
Alignment                        : Aligned on interleaves
Interleave, duration             : 24 ms (0.72 video frame)
Interleave, preload duration     : 482 ms


ПРИЯТНОГО ПРОСМОТРА ГОСПОДА!!!
Размер253.55 MB (265,871,360 байт)
Скачать Рай больших сисек - Кайла Кливедж - Big Tit Paradise - Kayla Kleevage

:: ОТЗЫВЫ


button_offline Отзыв от djl
avatar 689537

нихуясибетамдочкияохувший

button_offline Отзыв от valera93992
avatar 771914

:weirdo: :weirdo: :weirdo:ВОТ ЭТО ВЫМЯ

РЕГИСТРАЦИЯ.

Смотрите бесплатное порно или эротику

footerLeft
Информация для правообладателей На ёгли вы скачаете порно, бесплатные фильмы, а также новинки кино. Все это бесплатно и без смс.