Cкачать бесплатно фильмы.
Поиск фильмов
Log Pass забыли?
  Бесплатные фильмы
Скачать Раньше анал, а сейчас винил - Brittaney Starr (Anal Perversion 3)
КатегорияАнал / Зрелые
Похожие фильмы



Похожие онлайн фильмы
Постер фильма Раньше анал, а сейчас винил - Brittaney Starr (Anal Perversion 3)
Раньше анал, а сейчас винил - Brittaney Starr (Anal Perversion 3)

Обзор



Блонду вдвоем аналят гопники


General
Complete name                            : C:UsersUserDownloadsBrittaney Starr (Anal Perversion 3).mkv
Format                                   : Matroska
Format version                           : Version 1
File size                                : 974 MiB
Duration                                 : 21mn 23s
Overall bit rate mode                    : Variable
Overall bit rate                         : 6 370 Kbps
Writing application                      : Cyberlink Matroska Muxer v1.0.0
Writing library                          : libebml v0.7.8 + libmatroska v0.8.1

Video
ID                                       : 1
Format                                   : AVC
Format/Info                              : Advanced Video Codec
Format profile                           : High@L4.1
Format settings, CABAC                   : Yes
Format settings, ReFrames                : 2 frames
Codec ID                                 : V_MS/VFW/FOURCC / H264
Duration                                 : 21mn 23s
Bit rate mode                            : Variable
Bit rate                                 : 5 988 Kbps
Maximum bit rate                         : 7 200 Kbps
Width                                    : 720 pixels
Height                                   : 576 pixels
Display aspect ratio                     : 4:3
Frame rate mode                          : Constant
Frame rate                               : 25.000 fps
Standard                                 : PAL
Color space                              : YUV
Chroma subsampling                       : 4:2:0
Bit depth                                : 8 bits
Scan type                                : Interlaced
Scan order                               : Top Field First
Bits/(Pixel*Frame)                       : 0.578
Stream size                              : 916 MiB (94%)
Language                                 : English
Default                                  : Yes
Forced                                   : No

Audio
ID                                       : 2
Format                                   : AC-3
Format/Info                              : Audio Coding 3
Mode extension                           : CM (complete main)
Format settings, Endianness              : Big
Codec ID                                 : A_AC3
Duration                                 : 21mn 23s
Bit rate mode                            : Constant
Bit rate                                 : 256 Kbps
Channel(s)                               : 2 channels
Channel positions                        : Front: L R
Sampling rate                            : 48.0 KHz
Bit depth                                : 16 bits
Compression mode                         : Lossy
Stream size                              : 39.2 MiB (4%)
Language                                 : English
Default                                  : Yes
Forced                                   : No


http://i66.fastpic.ru/thumb/2015/1104/7a/73f12eddc1a61058c2911b866826727a.jpeg http://i66.fastpic.ru/thumb/2015/1104/fc/6f45c95110a65b373d8dd555952d83fc.jpeg http://i66.fastpic.ru/thumb/2015/1104/f9/9bca382f1ebeb6d16187a0246dabe9f9.jpeg http://i66.fastpic.ru/thumb/2015/1104/b8/804e2080621eb91d3e28a1c7478975b8.jpeg
Размер974.39 MB (1,021,720,690 байт)
Скачать Раньше анал, а сейчас винил - Brittaney Starr (Anal Perversion 3)

:: Отзывы



Отзывы отсутствуют.

 :: Отзывов нет
РЕГИСТРАЦИЯ.

Смотрите бесплатное порно или эротику

footerLeft
Информация для правообладателей На ёгли вы скачаете порно, бесплатные фильмы, а также новинки кино. Все это бесплатно и без смс.